logo
Международный русскоязычный
торрент-трекер
Menu

Doublon
Поделиться с друзьями: 
Голосуй за Корсар и получи 400 дублонов
Рейтинг торрент трекеров - UpTracker.ru

Лоскутное одеяло / How to Make an American Quilt (1995, драма, мелодрама, комедия, BDRip 720p) - KORSAR

Сообщение lesnik125 » 12 янв 2018, 01:27

Лоскутное одеяло / Нити судьбы

How to Make an American Quilt

«There's beauty in the patterns of life»


Страна: США
Жанр: драма, мелодрама, комедия
Год выпуска: 1995
Продолжительность: 01:56:19
Перевод: Профессиональный (многоголосый, закадровый), Авторский
Субтитры: русские, английские.

Режиссер: Джослин Мурхаус / Jocelyn Moorhouse

В ролях: Вайнона Райдер (Finn), Кейт Кэпшоу (Sally), Эллен Бёрстин (Hy), Энн Бэнкрофт (Glady Joe), Элфри Вудард (Marianna), Адам Болдуин (Finn's Father), Дермот Малруни (Sam), Джин Симмонс (Em), Рип Торн (Arthur), Майкелти Уильямсон (Winston), Ричард Дженкинс (Howell), Клэр Дэйнс (Young Glady Joe)

Описание: Юная Финн, студентка Беркли, приезжает на летние каникулы к своей бабушке, чтобы вдали от городской суеты написать дипломную работу. В уютной гостиной бабушкиного поместья каждый день собираются ее близкие подруги и за разговорами и чаепитием, не торопясь, шьют лоскутное одеяло.


MPAA: PG-13 - Детям до 13 лет просмотр не желателен

Семпл

Качество: BDRip 720p
Контейнер: MKV

Видео: AVC, 1280x692 (1.85:1), 5200 kbps, 23,976 fps, 0,245 bpp
Аудио №1: русский / AC3 / 2.0 / 48 kHz / 192 kbps / MVO
Аудио №2: русский / AC3 / 2.0 / 48 kHz / 192 kbps / AVO ( Санаев )
Аудио №3: английский / AC3 / 5.1 / 48 kHz / 640 kbps


Формат : Matroska
Версия формата : Version 2
Размер файла : 5,06 Гбайт
Продолжительность : 1 ч. 56 м.
Общий поток : 6223 Кбит/сек
Название фильма : = Лоскутное одеяло / How to Make an American Quilt (1995) BDRip 720p - KORSAR =
Дата кодирования : UTC 2018-01-11 07:47:20
Программа кодирования : mkvmerge v5.8.0 ('No Sleep / Pillow') built on Sep 2 2012 15:37:04
Библиотека кодирования : libebml v1.2.3 + libmatroska v1.3.0
Attachment : Yes

Видео
Идентификатор : 1
Формат : AVC
Формат/Информация : Advanced Video Codec
Профиль формата : High@L4.1
Параметр CABAC формата : Да
Параметр ReFrames формата : 8 кадров
Идентификатор кодека : V_MPEG4/ISO/AVC
Продолжительность : 1 ч. 56 м.
Битрейт : 5200 Кбит/сек
Ширина : 1280 пикселей
Высота : 692 пикселя
Соотношение сторон : 1,85:1
Режим частоты кадров : Постоянный
Частота кадров : 23,976 кадра/сек
Цветовое пространство : YUV
Субдискретизация насыщенности : 4:2:0
Битовая глубина : 8 бит
Тип развёртки : Прогрессивная
Бит/(Пиксели*Кадры) : 0.245
Размер потока : 4,12 Гбайт (82%)
Заголовок : Лоскутное одеяло / How to Make an American Quilt (1995) BDRip 720p - KORSAR
Библиотека кодирования : x264 core 148 r2744kMod b97ae06
Настройки программы : cabac=1 / ref=8 / deblock=1:-3:-3 / analyse=0x3:0x113 / me=umh / subme=11 / psy=1 / fade_compensate=0.00 / psy_rd=1.00:0.05 / mixed_ref=1 / me_range=32 / chroma_me=1 / trellis=2 / 8x8dct=1 / cqm=0 / deadzone=21,11 / fast_pskip=0 / chroma_qp_offset=-3 / threads=12 / lookahead_threads=3 / sliced_threads=0 / nr=0 / decimate=0 / interlaced=0 / bluray_compat=0 / constrained_intra=0 / bframes=12 / b_pyramid=2 / b_adapt=2 / b_bias=0 / direct=3 / weightb=1 / open_gop=0 / weightp=2 / keyint=240 / keyint_min=23 / scenecut=40 / intra_refresh=0 / rc_lookahead=60 / rc=2pass / mbtree=0 / bitrate=5200 / ratetol=1.0 / qcomp=0.60 / qpmin=0 / qpmax=39 / qpstep=4 / cplxblur=20.0 / qblur=0.5 / vbv_maxrate=50000 / vbv_bufsize=62500 / nal_hrd=none / filler=0 / ip_ratio=1.40 / pb_ratio=1.30 / aq=1:0.90
Язык : English
Default : Да
Forced : Нет
Основные цвета : BT.709
Характеристики трансфера : BT.709
Коэффициенты матрицы : BT.709

Аудио #1
Идентификатор : 2
Формат : AC-3
Формат/Информация : Audio Coding 3
Расширение режима : CM (complete main)
Параметр Endianness формата : Big
Идентификатор кодека : A_AC3
Продолжительность : 1 ч. 56 м.
Вид битрейта : Постоянный
Битрейт : 192 Кбит/сек
Каналы : 2 канала
Расположение каналов : Front: L R
Частота : 48,0 КГц
Битовая глубина : 16 бит
Метод сжатия : С потерями
Размер потока : 160 Мбайт (3%)
Заголовок : MVO
Язык : Russian
Default : Да
Forced : Нет

Аудио #2
Идентификатор : 3
Формат : AC-3
Формат/Информация : Audio Coding 3
Расширение режима : CM (complete main)
Параметр Endianness формата : Big
Идентификатор кодека : A_AC3
Продолжительность : 1 ч. 56 м.
Вид битрейта : Постоянный
Битрейт : 192 Кбит/сек
Каналы : 2 канала
Расположение каналов : Front: L R
Частота : 48,0 КГц
Битовая глубина : 16 бит
Метод сжатия : С потерями
Размер потока : 160 Мбайт (3%)
Заголовок : AVO ( Санаев )
Язык : Russian
Default : Нет
Forced : Нет

Аудио #3
Идентификатор : 4
Формат : AC-3
Формат/Информация : Audio Coding 3
Расширение режима : CM (complete main)
Параметр Endianness формата : Big
Идентификатор кодека : A_AC3
Продолжительность : 1 ч. 56 м.
Вид битрейта : Постоянный
Битрейт : 640 Кбит/сек
Каналы : 6 каналов
Расположение каналов : Front: L C R, Side: L R, LFE
Частота : 48,0 КГц
Битовая глубина : 16 бит
Метод сжатия : С потерями
Размер потока : 532 Мбайт (10%)
Язык : English
Default : Нет
Forced : Нет

Текст #1
Идентификатор : 5
Формат : UTF-8
Идентификатор кодека : S_TEXT/UTF8
Идентификатор кодека/Информация : UTF-8 Plain Text
Язык : Russian
Default : Нет
Forced : Нет

Текст #2
Идентификатор : 6
Формат : UTF-8
Идентификатор кодека : S_TEXT/UTF8
Идентификатор кодека/Информация : UTF-8 Plain Text
Язык : English
Default : Нет
Forced : Нет




Аватара пользователя
lesnik125
Главный Модератор-Корсар
 
 

Награды: 39
За помощь проекту (6) Лучший по количеству кубков (3) За отличные раздачи и качество (21) За подробное оформление раздач (2) Верный Сид (5)
Раздачи группы KORSAR разрешено перезаливать спустя сутки после публикации
  • Торрент
Для скачивания торрента необходимо зарегистрироваться или войти на трекер.

Сообщение Korsar » 12 янв 2018, 01:55

Спасибо Серега. :-drinks: :-good:
дык: Кстати Вайноне был поставлен диагнос клиптомания, ибо ее ловили на краже не один раз...

Боцман
Аватара пользователя
Korsar
Заслуженный Корсар-Вип+
 
 

Награды: 32
За помощь проекту (2) Лучший по количеству кубков (2) За отличные раздачи и качество (13) За подробное оформление раздач (1) За отличные комментарии (1) Верный Сид (11) За участие в конкурсах/играх (2)

Сообщение filbi1976 » 12 янв 2018, 03:52

Серёга, спасибо! :hi: :-drinks:
Аватара пользователя
filbi1976
Администратор-Корсар
 
 

Награды: 63
За помощь проекту (1) За отличные раздачи и качество (47) Верный Сид (12) За участие в конкурсах/играх (1)

Сообщение lesnik125 » 13 янв 2018, 01:44

Ребята, на здоровье. :hi: :-drinks:
Аватара пользователя
lesnik125
Главный Модератор-Корсар
 
 

Награды: 39
За помощь проекту (6) Лучший по количеству кубков (3) За отличные раздачи и качество (21) За подробное оформление раздач (2) Верный Сид (5)


Вернуться в Зарубежное кино (1991-2000 / HD Video)



Uptime по данным Ping-Admin.Ru - сервиса мониторинга доступности сайтов
Рейтинг@Mail.ru Голосуйте за наш сайт в каталоге Rubo.Ru
cron