logo
Международный русскоязычный
торрент-трекер
Menu
Doublon
Поделиться с друзьями: 
Голосуй за Корсар и получи 500 дублонов
Рейтинг торрент трекеров - UpTracker.ru

Лихорадка на белой полосе / White Line Fever (1975, Боевик, драма, BDRip 720p) - KORSAR

Сообщение MZMA » 26 ноя 2018, 13:51

Название: Лихорадка на белой полосе
Оригинальное название: White Line Fever
Год выпуска: 1975
Выпущено: США, Канада, Columbia Pictures Corporation, International Cinemedia Centre Ltd., White Line Fever Syndicate
Жанр: Боевик, драма, мелодрама, криминал
Режиссер: Джонатан Каплан
В ролях: Ян-Майкл Винсент, Кэй Ленц, Слим Пикенс, Л. К. Джонс, Сэм Лоус, Дон Портер, Р.Г. Армстронг, Ли Френч, Джонни Рэй МакГи, Дик Миллер, Мартин Коув, Джейми Андерсо

О фильме: Отслужив в армии, Кэррол Джо Хаммер возвращается домой и женится на симпатичной Джерри Кейн. Взяв в рассрочку мощный тягач, он нанимается в транспортную контору, в которой работал до службы. Теперь, имея собственный грузовик, Хаммер надеется честным трудом пополнить семейный бюджет. Однако времена изменились и бизнесом заправляют совсем другие люди, наживающиеся на контрабанде товаров. Отказ Хаммера учавствовать в махинациях нарушает налаженную схему перевозок, к тому же несговорчивый водила "плохо" влияет на других дальнобойщиков. Путем обмана, шантажа и насилия его пытаются заставить нарушить закон, но у Хаммера есть ружье и желание навести порядок на "белой полосе".



Продолжительность: 01:29:22
Перевод: Авторский
Субтитры: Английские
Навигация по главам: Есть

Качество: BDRip 720p
Видео: MPEG-4 AVC, 9999 Кбит/сек, 1280x720, 23,976 кадра/сек
Аудио #1: AC3, 2 ch, 192 Кбит/сек | Русский, авторский (одноголосый закадровый) Юрий Живов
Аудио #2: AC3, 2 ch, 224 Кбит/сек | Английский, оригинал

Релиз от:


x264 [info]: frame I:775 Avg QP:17.49 size:137481
x264 [info]: frame P:25181 Avg QP:19.78 size: 77912
x264 [info]: frame B:102615 Avg QP:21.78 size: 45152
-----------------------------------------------------
Общее
Уникальный идентификатор : 191528669303102702554173483480429689858 (0x901714771356C2FBB9B4D92D2090FC02)
Полное имя : Лихорадка.на.белой.полосе.1975.BDRip.720p.KORSAR.mkv
Формат : Matroska
Версия формата : Version 2
Размер файла : 6,50 Гбайт
Продолжительность : 1 ч. 29 м.
Общий поток : 10,4 Мбит/сек
Дата кодирования : UTC 2018-11-26 10:19:53
Программа кодирования : mkvmerge v5.8.0 ('No Sleep / Pillow') built on Sep 2 2012 15:37:04
Библиотека кодирования : libebml v1.2.3 + libmatroska v1.3.0

Видео
Идентификатор : 1
Формат : AVC
Формат/Информация : Advanced Video Codec
Профиль формата : High@L4.1
Настройки формата : CABAC / 9 Ref Frames
Параметр CABAC формата : Да
Параметр RefFrames формата : 9 кадров
Идентификатор кодека : V_MPEG4/ISO/AVC
Продолжительность : 1 ч. 29 м.
Битрейт : 9999 Кбит/сек
Ширина : 1280 пикселей
Высота : 720 пикселей
Соотношение сторон : 16:9
Режим частоты кадров : Постоянный
Частота кадров : 23,976 (24000/1001) кадра/сек
Цветовое пространство : YUV
Субдискретизация насыщенности : 4:2:0
Битовая глубина : 8 бит
Тип развёртки : Прогрессивная
Бит/(Пиксели*Кадры) : 0.453
Размер потока : 6,11 Гбайт (94%)
Заголовок : RIP | MZMA
Библиотека кодирования : x264 core 152 r2851kMod ba24899
Настройки программы : cabac=1 / ref=9 / deblock=1:-3:-2 / analyse=0x3:0x113 / me=umh / subme=11 / psy=1 / fade_compensate=0.00 / psy_rd=1.00:0.00 / mixed_ref=1 / me_range=64 / chroma_me=1 / trellis=2 / 8x8dct=1 / cqm=0 / deadzone=21,11 / fast_pskip=0 / chroma_qp_offset=-2 / threads=6 / lookahead_threads=1 / sliced_threads=0 / nr=0 / decimate=0 / interlaced=0 / bluray_compat=0 / constrained_intra=0 / bframes=16 / b_pyramid=2 / b_adapt=2 / b_bias=0 / direct=3 / weightb=1 / open_gop=0 / weightp=2 / keyint=240 / keyint_min=23 / scenecut=40 / intra_refresh=0 / rc_lookahead=40 / rc=2pass / mbtree=0 / bitrate=9999 / ratetol=1.0 / qcomp=0.60 / qpmin=0 / qpmax=69 / qpstep=4 / cplxblur=20.0 / qblur=0.5 / vbv_maxrate=50000 / vbv_bufsize=62500 / nal_hrd=none / filler=0 / ip_ratio=1.40 / pb_ratio=1.30 / aq=1:1.00
Язык : English
По умолчанию : Да
Принудительно : Нет
Цветовой диапазон : Limited
Основные цвета : BT.709
Характеристики трансфера : BT.709
Коэффициенты матрицы : BT.709

Аудио #1
Идентификатор : 2
Формат : AC-3
Формат/Информация : Audio Coding 3
Идентификатор кодека : A_AC3
Продолжительность : 1 ч. 29 м.
Вид битрейта : Постоянный
Битрейт : 192 Кбит/сек
Каналы : 2 канала
Расположение каналов : Front: L R
Частота : 48,0 КГц
Частота кадров : 31,250 кадров/сек (1536 SPF)
Битовая глубина : 16 бит
Метод сжатия : С потерями
Размер потока : 123 Мбайт (2%)
Заголовок : AVO | Ю. Живов
Язык : Russian
По умолчанию : Да
Принудительно : Нет

Аудио #2
Идентификатор : 3
Формат : AC-3
Формат/Информация : Audio Coding 3
Идентификатор кодека : A_AC3
Продолжительность : 1 ч. 29 м.
Вид битрейта : Постоянный
Битрейт : 224 Кбит/сек
Каналы : 2 канала
Расположение каналов : Front: L R
Частота : 48,0 КГц
Частота кадров : 31,250 кадров/сек (1536 SPF)
Битовая глубина : 16 бит
Метод сжатия : С потерями
Размер потока : 143 Мбайт (2%)
Заголовок : Original
Язык : English
По умолчанию : Нет
Принудительно : Нет

Текст #1
Идентификатор : 4
Формат : UTF-8
Идентификатор кодека : S_TEXT/UTF8
Идентификатор кодека/Информация : UTF-8 Plain Text
Язык : English
По умолчанию : Нет
Принудительно : Нет

Текст #2
Идентификатор : 5
Формат : UTF-8
Идентификатор кодека : S_TEXT/UTF8
Идентификатор кодека/Информация : UTF-8 Plain Text
Заголовок : SDH
Язык : English
По умолчанию : Нет
Принудительно : Нет

Меню
00:00:00.000 : en:Chapter 01
00:07:35.495 : en:Chapter 02
00:14:37.293 : en:Chapter 03
00:24:17.922 : en:Chapter 04
00:38:49.550 : en:Chapter 05
00:49:44.481 : en:Chapter 06
00:59:24.153 : en:Chapter 07
01:06:44.858 : en:Chapter 08
01:11:05.094 : en:Chapter 09
01:20:10.305 : en:Chapter 10
01:26:52.505 : en:Chapter 11

Просьба отключить блокировщики рекламы на странице скриншотов по адресу: http://3.lostpic.net/, этим Вы поможете существованию проекта. Заранее спасибо!
При скачивании раздач данного релизёра, дублоны не снимаются, а за сидирование установлен максимальный коэффициент. Просьба ко всем, поддержать сидированием раздачи Леонида и сохранить о нём память!
КУБКИ

СТАЖ

МЕДАЛИ
Награды:126

За активную помощь проекту (4) Лучший по количеству кубков (17) За отличные раздачи и качество (58) За подробное оформление раздач (11) За отличные комментарии (5) Почётный форумчанин (5) Верный Сид (26)

Аватара пользователя
СССР
MZMA
Заслуженный Корсар-Вип+
Раздачи группы KORSAR перезаливать запрещено, кроме групп партнёров и самой группы, но спустя 14 дней после публикации и с обязательным добавлением банера
  • Торрент
Для скачивания торрента необходимо зарегистрироваться или войти на трекер.

Сообщение MZMA » 26 ноя 2018, 13:56

Исходник видео взят с зарубежного трекера.
КУБКИ

СТАЖ

МЕДАЛИ
Награды:126

За активную помощь проекту (4) Лучший по количеству кубков (17) За отличные раздачи и качество (58) За подробное оформление раздач (11) За отличные комментарии (5) Почётный форумчанин (5) Верный Сид (26)

Аватара пользователя
СССР
MZMA
Заслуженный Корсар-Вип+

Сообщение kwazar312 » 26 ноя 2018, 14:23

Без преувеличения, культовый фильм в СССР конца 70-х!
Фильм шёл в советском прокате в 1977 году. В 1980-е и 1990-е годы в России фильм распространялся на пиратских VHS-кассетах в авторских одноголосых закадровых переводах.
Грузовик, использовавшийся для съёмок фильма — белый с голубым тягач седельных автопоездов (фур) фирмы Ford с названием «голубой мул». Это название написано на грузовике.
Съёмки проходили в городе Тусон и вокруг него, штат Аризона.
Уважаемый MZMA,огромное спасибо за очередной ретро-фильм.Пересмотрю с удовольствием,понастальгирую по юности.Удачи ВАМ.
КУБКИ

СТАЖ

МЕДАЛИ
Награды:133

За активную помощь проекту (13) Лучший по количеству кубков (40) За отличные раздачи и качество (3) За отличные комментарии (22) Почётный форумчанин (4) Верный Сид (45) За участие в конкурсах/играх (6)

Аватара пользователя
kwazar312
Заслуженный Корсар-Вип

Сообщение Garry » 26 ноя 2018, 18:01

Дорогой MZMA! Благодарю за отличный фильм! Продолжайте в том же духе. Желаю вам всего самого, самого наилучшего!!! В общем, чтобы все было хорошо и радостно в вашей жизни!!! С большим уважением hodigor.
КУБКИ

СТАЖ

МЕДАЛИ
Награды:56

За активную помощь проекту (15) Лучший по количеству кубков (15) За отличные раздачи и качество (1) За отличные комментарии (9) Почётный форумчанин (5) Верный Сид (11)

Аватара пользователя
Garry
Заслуженный Корсар-Вип+

Сообщение Aleksmak » 26 ноя 2018, 19:25

Спасибо за фильм! Давно искал в коллекцию в хорошем качестве и нормальном объёме .
КУБКИ

СТАЖ

МЕДАЛИ
Награды:7

За отличные раздачи и качество (1) Почётный форумчанин (3) Верный Сид (3)

Аватара пользователя
Aleksmak
Уважаемый Корсар

Сообщение filbi1976 » 09 ноя 2019, 14:15

Как же мне тебя бедолагу, не хватает, ты даже не представляешь!!!
Посмотреть товар в профиле пользователя

Нажмите на изображение, чтобы увидеть в полный размер  
1 шт.
Нажмите на изображение, чтобы увидеть в полный размер  
1 шт.
Нажмите на изображение, чтобы увидеть в полный размер  
1 шт.
Нажмите на изображение, чтобы увидеть в полный размер  
1 шт.
Нажмите на изображение, чтобы увидеть в полный размер  
1 шт.
Нажмите на изображение, чтобы увидеть в полный размер  
1 шт.
Нажмите на изображение, чтобы увидеть в полный размер  
1 шт.
Нажмите на изображение, чтобы увидеть в полный размер  
1 шт.
Нажмите на изображение, чтобы увидеть в полный размер  
1 шт.
Нажмите на изображение, чтобы увидеть в полный размер  
1 шт.
Нажмите на изображение, чтобы увидеть в полный размер  
1 шт.
Нажмите на изображение, чтобы увидеть в полный размер  
1 шт.
Нажмите на изображение, чтобы увидеть в полный размер  
1 шт.
Нажмите на изображение, чтобы увидеть в полный размер  
1 шт.
Нажмите на изображение, чтобы увидеть в полный размер  
1 шт.
КУБКИ

СТАЖ

МЕДАЛИ
Награды:133

За активную помощь проекту (4) За отличные раздачи и качество (82) За подробное оформление раздач (1) За отличные комментарии (6) Почётный форумчанин (7) Верный Сид (30) За участие в конкурсах/играх (1)

Аватара пользователя
Тортуга
filbi1976
Администратор-Корсар


Вернуться в Классика зарубежного кино (фильмы до 1980 года / HD Video)



Uptime по данным Ping-Admin.Ru - сервиса мониторинга доступности сайтов
Рейтинг@Mail.ru