logo
Международный русскоязычный
торрент-трекер
Menu
Поделиться с друзьями: 
Голосуй за Корсар и получи 500 дублонов
Рейтинг торрент трекеров - UpTracker.ru

Летят журавли (1957, Военный, мелодрама, история, драма, BDRip 720p) - KORSAR | FRA Transfer

Сообщение filbi1976 » 13 окт 2019, 05:02

Летят журавли

Год выпуска: 1957
Жанр: Военный, мелодрама, история, драма
Режиссер: Михаил Калатозов
В ролях: Татьяна Самойлова, Алексей Баталов, Василий Меркурьев, Александр Шворин, Светлана Харитонова, Константин Никитин, Валентин Зубков, Антонина Богданова, Борис Коковкин, Екатерина Куприянова, Валентина Ананьина, Кларина Фролова, Леонид Князев, Даниил Нетребин, Александр Попов, Николай Сморчков, Галина Степанова, Валентина Владимирова, Любовь Соколова, Саша Попов

О фильме: Фильм рассказывает о людях, в чьи судьбы безжалостно вторглась война. Не все смогли с честью вынести это испытание... В центре киноповести - трагическая история двух влюбленных, которых война разлучила навсегда.



Выпущено: СССР, Мосфильм
Продолжительность: 01:36:21
Перевод: Не требуется

Качество: BDRip 720p
Контейнер: MKV
Видео: MPEG-4 AVC Video, 988x720, 24.000 fps, 8887 kbps
Аудио: AC3, 6 ch, 448 Кбит/с, AC3, 1 ch, 448 Кбит/с
Субтитры: Русские, английские
Навигация по главам: Есть



TeamHD by sergeyzp77 за исходный Blu-Ray диск.
  • x264 [info]: frame I:658 Avg QP:17.45 size:135233
  • x264 [info]: frame P:30008 Avg QP:19.39 size: 84537
  • x264 [info]: frame B:108094 Avg QP:21.51 size: 36325
  • x264 [info]: consecutive B-frames: 1.2% 1.2% 5.4% 29.3% 25.8% 33.2% 2.7% 0.6% 0.3% 0.4%
Общее
Уникальный идентификатор : 186242035962346125270418299030082088180 (0x8C1CE95145787A1A9D01A9FED386ECF4)
Полное имя : D:\Летят журавли_1957-BDRip 720p_KORSAR.mkv
Формат : Matroska
Версия формата : Version 2
Размер файла : 6,71 Гбайт
Продолжительность : 1 ч. 36 м.
Общий поток : 9964 Кбит/сек
Название фильма : Летят журавли_1957-BDRip 720p_KORSAR
Дата кодирования : UTC 2019-10-13 01:52:55
Программа кодирования : mkvmerge v5.8.0 ('No Sleep / Pillow') built on Sep 2 2012 15:37:04
Библиотека кодирования : libebml v1.2.3 + libmatroska v1.3.0

Видео
Идентификатор : 1
Формат : AVC
Формат/Информация : Advanced Video Codec
Профиль формата : High@L4.1
Настройки формата : CABAC / 11 Ref Frames
Параметр CABAC формата : Да
Параметр RefFrames формата : 11 кадров
Идентификатор кодека : V_MPEG4/ISO/AVC
Продолжительность : 1 ч. 36 м.
Битрейт : 8870 Кбит/сек
Ширина : 988 пикселей
Высота : 720 пикселей
Соотношение сторон : 1,372
Режим частоты кадров : Постоянный
Частота кадров : 24,000 кадра/сек
Цветовое пространство : YUV
Субдискретизация насыщенности : 4:2:0
Битовая глубина : 8 бит
Тип развёртки : Прогрессивная
Бит/(Пиксели*Кадры) : 0.520
Размер потока : 5,97 Гбайт (89%)
Библиотека кодирования : x264 core 152 r2851kMod ba24899
Настройки программы : cabac=1 / ref=11 / deblock=1:-2:-2 / analyse=0x3:0x113 / me=umh / subme=10 / psy=1 / fade_compensate=0.00 / psy_rd=1.05:0.05 / mixed_ref=1 / me_range=40 / chroma_me=1 / trellis=2 / 8x8dct=1 / cqm=0 / deadzone=21,11 / fast_pskip=1 / chroma_qp_offset=-3 / threads=12 / lookahead_threads=2 / sliced_threads=0 / nr=0 / decimate=1 / interlaced=0 / bluray_compat=0 / constrained_intra=0 / bframes=9 / b_pyramid=2 / b_adapt=2 / b_bias=0 / direct=1 / weightb=1 / open_gop=0 / weightp=2 / keyint=240 / keyint_min=24 / scenecut=40 / intra_refresh=0 / rc=crf / mbtree=0 / crf=18.0000 / qcomp=0.63 / qpmin=0 / qpmax=30 / qpstep=4 / ip_ratio=1.40 / pb_ratio=1.30 / aq=2:0.80
Язык : English
Default : Да
Forced : Нет
Цветовой диапазон : Limited
Основные цвета : BT.709
Характеристики трансфера : BT.709
Коэффициенты матрицы : BT.709

Аудио #1
Идентификатор : 2
Формат : AC-3
Формат/Информация : Audio Coding 3
Коммерческое название : Dolby Digital
Идентификатор кодека : A_AC3
Продолжительность : 1 ч. 36 м.
Вид битрейта : Постоянный
Битрейт : 448 Кбит/сек
Каналы : 6 каналов
ChannelLayout : L R C LFE Ls Rs
Частота : 48,0 КГц
Частота кадров : 31,250 кадров/сек (1536 SPF)
Битовая глубина : 16 бит
Метод сжатия : С потерями
Размер потока : 309 Мбайт (4%)
Заголовок : AC-3; 16 bits 48 Khz; 5.1ch 448 Kbps; CBR | DVD9 "КП"
Язык : Russian
ServiceKind/String : Complete Main
Default : Нет
Forced : Нет

Аудио #2
Идентификатор : 3
Формат : AC-3
Формат/Информация : Audio Coding 3
Коммерческое название : Dolby Digital
Идентификатор кодека : A_AC3
Продолжительность : 1 ч. 36 м.
Вид битрейта : Постоянный
Битрейт : 448 Кбит/сек
Каналы : 1 канал
ChannelLayout : C
Частота : 48,0 КГц
Частота кадров : 31,250 кадров/сек (1536 SPF)
Битовая глубина : 16 бит
Метод сжатия : С потерями
Размер потока : 309 Мбайт (4%)
Заголовок : AC-3; 16 bits 48 Khz; Mono 448 Kbps; CBR | DVD9 "КП"
Язык : Russian
ServiceKind/String : Complete Main
Default : Да
Forced : Нет

Текст #1
Идентификатор : 4
Формат : UTF-8
Идентификатор кодека : S_TEXT/UTF8
Идентификатор кодека/Информация : UTF-8 Plain Text
Заголовок : Субтитры русские
Язык : Russian
Default : Нет
Forced : Нет

Текст #2
Идентификатор : 5
Формат : UTF-8
Идентификатор кодека : S_TEXT/UTF8
Идентификатор кодека/Информация : UTF-8 Plain Text
Заголовок : Субтитры английские
Язык : English
Default : Нет
Forced : Нет

Меню
00:00:00.000 : ru:Утро
00:08:51.250 : ru:Война
00:16:54.750 : ru:Повестка
00:20:04.708 : ru:Подарок
00:21:44.875 : ru:Проводы
00:29:07.167 : ru:Сборный пункт
00:34:38.125 : ru:Бомбежка
00:39:59.792 : ru:Пощечина
00:44:43.000 : ru:Окружение
00:48:10.875 : ru:Смерть
00:54:01.708 : ru:Эвакуация
01:02:13.500 : ru:Госпиталь
01:08:49.458 : ru:Борис Маленький
01:15:30.292 : ru:Записка
01:24:16.583 : ru:Известие
01:29:46.417 : ru:Нет войны

Просьба отключить блокировщики рекламы на странице скриншотов по адресу: http://3.lostpic.net/, этим Вы поможете существованию проекта. Заранее спасибо!
The Show Must Go On
Посмотреть товар в профиле пользователя

Нажмите на изображение, чтобы увидеть в полный размер  
1 шт.
Нажмите на изображение, чтобы увидеть в полный размер  
1 шт.
Нажмите на изображение, чтобы увидеть в полный размер  
1 шт.
Нажмите на изображение, чтобы увидеть в полный размер  
1 шт.
Нажмите на изображение, чтобы увидеть в полный размер  
1 шт.
Нажмите на изображение, чтобы увидеть в полный размер  
1 шт.
Нажмите на изображение, чтобы увидеть в полный размер  
1 шт.
Нажмите на изображение, чтобы увидеть в полный размер  
1 шт.
Нажмите на изображение, чтобы увидеть в полный размер  
1 шт.
Нажмите на изображение, чтобы увидеть в полный размер  
1 шт.
Нажмите на изображение, чтобы увидеть в полный размер  
1 шт.
Нажмите на изображение, чтобы увидеть в полный размер  
1 шт.
Нажмите на изображение, чтобы увидеть в полный размер  
1 шт.
Нажмите на изображение, чтобы увидеть в полный размер  
1 шт.
Нажмите на изображение, чтобы увидеть в полный размер  
1 шт.
КУБКИ

СТАЖ

МЕДАЛИ
Награды:164

За активную помощь проекту (5) Лучший по количеству кубков (1) За отличные раздачи и качество (108) За подробное оформление раздач (4) За отличные комментарии (7) Почётный форумчанин (2) Верный Сид (33) За участие в конкурсах/играх (2) 3 место в конкурсах/играх (1)

Аватара пользователя
Тортуга
filbi1976
Администратор-Корсар
Раздачи группы KORSAR разрешено перезаливать спустя 7 дней после публикации и с обязательным добавлением банера
  • Торрент
Для скачивания торрента необходимо зарегистрироваться или войти на трекер.

Сообщение Bars_St » 13 окт 2019, 06:53

Спасибо!!! :hi: :hi: :hi: Хорошее кино :good: :good: :good:
КУБКИ

СТАЖ

МЕДАЛИ
Награды:95

Пожизненный VIP+ (1) За активную помощь проекту (21) Лучший по количеству кубков (29) За отличные раздачи и качество (3) За отличные комментарии (13) Почётный форумчанин (1) Верный Сид (27)

Аватара пользователя
СССР
Bars_St
Заслуженный Корсар-Вип+

Сообщение verybigpapa » 13 окт 2019, 08:02

Уважаемый filbi1976, огромное спасибо! :hi: :respect:
Улыбайтесь, господа! Улыбайтесь!
КУБКИ

СТАЖ

МЕДАЛИ
Награды:67

Пожизненный VIP+ (1) За активную помощь проекту (26) Лучший по количеству кубков (9) За отличные раздачи и качество (1) За отличные комментарии (11) Почётный форумчанин (1) Верный Сид (18)

Аватара пользователя
СССР
verybigpapa
Заслуженный Корсар-Вип+

Сообщение Coikka58 » 26 янв 2020, 07:04

Спасибо огромное! :good:
КУБКИ

СТАЖ

МЕДАЛИ


Аватара пользователя
Coikka58
Опытный Корсар

Сообщение filbi1976 » 26 янв 2020, 07:04

Снят режим приватности, присоединяйтесь к сидированию! :hi:
The Show Must Go On
Посмотреть товар в профиле пользователя

Нажмите на изображение, чтобы увидеть в полный размер  
1 шт.
Нажмите на изображение, чтобы увидеть в полный размер  
1 шт.
Нажмите на изображение, чтобы увидеть в полный размер  
1 шт.
Нажмите на изображение, чтобы увидеть в полный размер  
1 шт.
Нажмите на изображение, чтобы увидеть в полный размер  
1 шт.
Нажмите на изображение, чтобы увидеть в полный размер  
1 шт.
Нажмите на изображение, чтобы увидеть в полный размер  
1 шт.
Нажмите на изображение, чтобы увидеть в полный размер  
1 шт.
Нажмите на изображение, чтобы увидеть в полный размер  
1 шт.
Нажмите на изображение, чтобы увидеть в полный размер  
1 шт.
Нажмите на изображение, чтобы увидеть в полный размер  
1 шт.
Нажмите на изображение, чтобы увидеть в полный размер  
1 шт.
Нажмите на изображение, чтобы увидеть в полный размер  
1 шт.
Нажмите на изображение, чтобы увидеть в полный размер  
1 шт.
Нажмите на изображение, чтобы увидеть в полный размер  
1 шт.
КУБКИ

СТАЖ

МЕДАЛИ
Награды:164

За активную помощь проекту (5) Лучший по количеству кубков (1) За отличные раздачи и качество (108) За подробное оформление раздач (4) За отличные комментарии (7) Почётный форумчанин (2) Верный Сид (33) За участие в конкурсах/играх (2) 3 место в конкурсах/играх (1)

Аватара пользователя
Тортуга
filbi1976
Администратор-Корсар

Сообщение poletov » 25 мар 2020, 20:09

Замечательное российское кино,достойное всяческих похвал
КУБКИ

СТАЖ

МЕДАЛИ
Награды:15

За отличные раздачи и качество (1) За отличные комментарии (11) Почётный форумчанин (2) Верный Сид (1)

Аватара пользователя
Russia
poletov
Заслуженный Корсар


Вернуться в Кино времён СССР (HD Video)



Uptime по данным Ping-Admin.Ru - сервиса мониторинга доступности сайтов
Рейтинг@Mail.ru