logo
Международный русскоязычный
торрент-трекер
Menu
Doublon
Поделиться с друзьями: 
Голосуй за Корсар и получи 500 дублонов
Рейтинг торрент трекеров - UpTracker.ru

Летят журавли (1957, драма, мелодрама, военный, WEB-DL 1080p)

Сообщение kisa1980 » 15 апр 2019, 19:25

Название: Летят журавли
Год выпуска: 1957
Жанр: Драма, мелодрама, военный
Режиссер: Михаил Калатозов
В ролях: Татьяна Самойлова, Алексей Баталов, Василий Меркурьев, Александр Шворин, Светлана Харитонова, Константин Никитин, Валентин Зубков, Антонина Богданова, Борис Коковкин, Екатерина Куприянова, Валентина Ананьина, Кларина Фролова, Леонид Князев, Даниил Нетребин, Александр Попов, Николай Сморчков, Галина Степанова, Валентина Владимирова, Любовь Соколова, Саша Попов

Описание: Фильм рассказывает о людях, в чьи судьбы безжалостно вторглась война. Не все смогли с честью вынести это испытание... В центре киноповести - трагическая история двух влюбленных, которых война разлучила навсегда.



Страна: СССР, Мосфильм
Продолжительность: 01:36:20
Перевод: Не требуется

Качество: WEB-DL 1080p
Контейнер: MKV
Видео: MPEG-4 AVC, 1478x1080, 24.000 fps, 4524 Kbps
Аудио 1: Русский: AC3, 16 bits, 48 Khz, 1.0 ch, 448 Kbps | DVD9
Аудио 2: Русский: AC3, 16 bits, 48 Khz, 5.1 ch, 448 Kbps | DVD9 ?*
Субтитры: Русские, английские

Релиз от: george$t




General
Unique ID : 190287522619173370319477371051171761779 (0x8F280B3587ADF005A45995E1B901CE73)
Complete name : Летят журавли.1957.1080p.mkv
Format : Matroska
Format version : Version 2
File size : 3.65 GiB
Duration : 1 h 36 min
Overall bit rate : 5 422 kb/s
Encoded date : UTC 2019-04-15 14:33:27
Writing application : mkvmerge v7.8.0 ('River Man') 32bit built on Mar 27 2015 16:18:02
Writing library : libebml v1.3.1 + libmatroska v1.4.2

Video
ID : 1
Format : AVC
Format/Info : Advanced Video Codec
Format profile : High@L4
Format settings : CABAC / 5 Ref Frames
Format settings, CABAC : Yes
Format settings, ReFrames : 5 frames
Codec ID : V_MPEG4/ISO/AVC
Duration : 1 h 36 min
Bit rate : 4 418 kb/s
Width : 1 478 pixels
Height : 1 080 pixels
Display aspect ratio : 4:3
Frame rate mode : Constant
Frame rate : 24.000 FPS
Color space : YUV
Chroma subsampling : 4:2:0
Bit depth : 8 bits
Scan type : Progressive
Bits/(Pixel*Frame) : 0.115
Stream size : 2.97 GiB (81%)
Title : Летят журавли.1957
Language : Russian
Default : Yes
Forced : No
Color range : Limited
Color primaries : BT.709
Transfer characteristics : BT.709
Matrix coefficients : BT.709

Audio #1
ID : 2
Format : AC-3
Format/Info : Audio Coding 3
Codec ID : A_AC3
Duration : 1 h 36 min
Bit rate mode : Constant
Bit rate : 448 kb/s
Channel(s) : 1 channel
Channel positions : Front: C
Sampling rate : 48.0 kHz
Frame rate : 31.250 FPS (1536 SPF)
Bit depth : 16 bits
Compression mode : Lossy
Stream size : 309 MiB (8%)
Title : AC-3; 16 bits 48 Khz; Mono 448 Kbps; CBR | DVD9 "КП"
Language : Russian
Service kind : Complete Main
Default : Yes
Forced : No

Audio #2
ID : 3
Format : AC-3
Format/Info : Audio Coding 3
Codec ID : A_AC3
Duration : 1 h 36 min
Bit rate mode : Constant
Bit rate : 448 kb/s
Channel(s) : 6 channels
Channel positions : Front: L C R, Side: L R, LFE
Sampling rate : 48.0 kHz
Frame rate : 31.250 FPS (1536 SPF)
Bit depth : 16 bits
Compression mode : Lossy
Stream size : 309 MiB (8%)
Title : AC-3; 16 bits 48 Khz; 5.1ch 448 Kbps; CBR | DVD9 "КП"
Language : Russian
Service kind : Complete Main
Default : No
Forced : No

Text #1
ID : 4
Format : UTF-8
Codec ID : S_TEXT/UTF8
Codec ID/Info : UTF-8 Plain Text
Title : Субтитры русские
Language : Russian
Default : No
Forced : No

Text #2
ID : 5
Format : UTF-8
Codec ID : S_TEXT/UTF8
Codec ID/Info : UTF-8 Plain Text
Title : Субтитры английские
Language : English
Default : No
Forced : No

Menu
00:00:00.000 : ru:Утро
00:08:51.250 : ru:Война
00:16:54.750 : ru:Повестка
00:20:04.708 : ru:Подарок
00:21:44.875 : ru:Проводы
00:29:07.167 : ru:Сборный пункт
00:34:38.125 : ru:Бомбежка
00:39:59.792 : ru:Пощечина
00:44:43.000 : ru:Окружение
00:48:10.875 : ru:Смерть
00:54:01.708 : ru:Эвакуация
01:02:13.500 : ru:Госпиталь
01:08:49.458 : ru:Борис Маленький
01:15:30.292 : ru:Записка
01:24:16.583 : ru:Известие
01:29:46.417 : ru:Нет войны
КУБКИ

СТАЖ

МЕДАЛИ
Награды:80

За помощь проекту (9) Лучший по количеству кубков (3) За отличные раздачи и качество (26) За подробное оформление раздач (5) За отличные комментарии (7) Почётный форумчанин (5) Верный Сид (21) За участие в конкурсах/играх (2)

Аватара пользователя
Тортуга
kisa1980
Главный помощник Администратора-Корсар
  • Торрент
Для скачивания торрента необходимо зарегистрироваться или войти на трекер.

Сообщение kwazar312 » 15 апр 2019, 19:46

Такое качество встречаю первый раз,надо посмотреть этот великолепный советский фильм.
Уважаемые george$t и kisa1980,большое спасибо за раздачу данного фильма.Творческих успехов ВАМ.
:hi: :10 balov: :ura: :hay_: :poka_:
КУБКИ

СТАЖ

МЕДАЛИ
Награды:97

За помощь проекту (10) Лучший по количеству кубков (26) За отличные раздачи и качество (1) За отличные комментарии (18) Верный Сид (36) За участие в конкурсах/играх (6)

Аватара пользователя
kwazar312
Заслуженный Корсар-Вип

Сообщение kisa1980 » 15 апр 2019, 19:54

kwazar312 писал(а):Уважаемые george$t и kisa1980,большое спасибо за раздачу данного фильма.Творческих успехов ВАМ.

Пожалуйста! :hi:
КУБКИ

СТАЖ

МЕДАЛИ
Награды:80

За помощь проекту (9) Лучший по количеству кубков (3) За отличные раздачи и качество (26) За подробное оформление раздач (5) За отличные комментарии (7) Почётный форумчанин (5) Верный Сид (21) За участие в конкурсах/играх (2)

Аватара пользователя
Тортуга
kisa1980
Главный помощник Администратора-Корсар

Сообщение genal » 15 апр 2019, 21:35

Спасибо!!! :so_happy:
КУБКИ

СТАЖ

МЕДАЛИ
Награды:6

За помощь проекту (3) Лучший по количеству кубков (1) Верный Сид (2)

Аватара пользователя
genal
Заслуженный Корсар-Вип+

Сообщение Bars_St » 16 апр 2019, 08:46

Спасибо!!! :hi: :hi: :hi: Хорошее кино :good: :good: :good:
КУБКИ

СТАЖ

МЕДАЛИ
Награды:59

За помощь проекту (15) Лучший по количеству кубков (12) За отличные раздачи и качество (1) За отличные комментарии (10) Верный Сид (21)

Аватара пользователя
СССР
Bars_St
Заслуженный Корсар-Вип

Сообщение verybigpapa » 17 апр 2019, 11:04

Уважаемый kisa1980, большое спасибо Вам и автору релиза. :hi: :respect:
Улыбайтесь, господа! Улыбайтесь!
КУБКИ

СТАЖ

МЕДАЛИ
Награды:52

За помощь проекту (20) Лучший по количеству кубков (9) За отличные комментарии (8) Верный Сид (15)

Аватара пользователя
СССР
verybigpapa
Заслуженный Корсар-Вип


Вернуться в Кино времён СССР (HD Video)



Uptime по данным Ping-Admin.Ru - сервиса мониторинга доступности сайтов
Рейтинг@Mail.ru Голосуйте за наш сайт в каталоге Rubo.Ru