logo
Международный русскоязычный
торрент-трекер

Магазин-KorsaRDoublon

Поделиться с друзьями: 
Голосуй и получи дублоны
Рейтинг торрент трекеров - UpTracker.ru

Лето волков / Капли крови на цветущем вереске / Серии: 1 - 6 из 6 (2011, военный, драма, BDRip 720p)

Сообщение Korsar » 03 дек 2016, 22:33

#777
Лето волков
Год выпуска: 2011
Страна: Россия
Жанр: драма, военный
Продолжительность: 05:22:43
Cубтитры: нет

Режиссер: Дмитрий Иосифов
Сценарий: Виктор Смирнов

В ролях: Алексей Бардуков (Иван), Анна Полупанова (Малашка), Максим Житник (Платовец), Алексей Морозов (Кириченко, бандит), Игорь Скляр (председатель), Сергей Колтаков (Семиренков), Александр Воробьев (Попеленко), Вера Кавалерова (бабка Ивана), Юлия Пересильд (Тося), Кирилл Новицкий (Сашко), Мария Куликова (Варвара), Сергей Друзьяк (Николка Абросимов)
Релиз на DVD: 29 сентября 2011, «Мистерия Звука»
Описание: Молодой лейтенант, получив отпуск после ранения, приезжает в родные места: здесь, по фронтовым понятиям, глубокий тыл. Окружённое лесами село мало изменилось, война почти не тронула его. Но, всё то и не то... Любимая девушка, давшая обещание «ждать вечно», не хочет даже разговаривать, земляки избегают его, а самый близкий человек, бабка, добрый ангел детства, умоляет снять награды с гимнастёрки и ни за что не ходить в лес. Жестокие убийства заставляют фронтовика вступить в борьбу с теми, кто таится в лесных чащобах. Но, чтобы добраться до убийц, предстоит выяснить, кто из односельчан связан с ними...
Рейтинг
kinopoisk.ru: 7.581 (187)

Качество: BDRip (tRuAVC)
Исходник: Blu-ray 1080p [HDClub by crazy_gringo]
Формат: Matroska
Видеокодек: AVC
Аудиокодек: AC3
Видео: 1280x720 (16:9); 9355 Kbps; 24 fps
Аудио: Russian; AC3; 448 Kbps; CBR; 6 ch


General
Unique ID : 225414556983724235435664259819029649649 (0xA99543B78E06601CB0C59E9B2F9FD8F1)
Complete name : Leto.volkov.e01.2011.720p.x264.AC3-Skazhutin.mkv
Format : Matroska
Format version : Version 2
File size : 3.28 GiB
Duration : 52mn 57s
Overall bit rate : 8 868 Kbps
Encoded date : UTC 2011-12-12 02:11:44
Writing application : mkvmerge v5.1.0 ('And so it goes') built on Nov 28 2011 23:58:28
Writing library : libebml v1.2.3 + libmatroska v1.3.0

Video
ID : 1
Format : AVC
Format/Info : Advanced Video Codec
Format profile : High@L4.1
Format settings, CABAC : Yes
Format settings, ReFrames : 8 frames
Codec ID : V_MPEG4/ISO/AVC
Duration : 52mn 57s
Bit rate : 8 244 Kbps
Width : 1 280 pixels
Height : 720 pixels
Display aspect ratio : 16:9
Frame rate : 24.000 fps
Color space : YUV
Chroma subsampling : 4:2:0
Bit depth : 8 bits
Scan type : Progressive
Bits/(Pixel*Frame) : 0.373
Stream size : 3.05 GiB (93%)
Writing library : x264 core 120 r2120 0c7dab9
Encoding settings : cabac=1 / ref=8 / deblock=1:-2:-2 / analyse=0x3:0x113 / me=umh / subme=11 / psy=1 / psy_rd=0.90:0.05 / mixed_ref=1 / me_range=48 / chroma_me=1 / trellis=2 / 8x8dct=1 / cqm=0 / deadzone=21,11 / fast_pskip=1 / chroma_qp_offset=-3 / threads=12 / sliced_threads=0 / nr=0 / decimate=1 / interlaced=0 / bluray_compat=0 / constrained_intra=0 / bframes=8 / b_pyramid=2 / b_adapt=2 / b_bias=0 / direct=1 / weightb=1 / open_gop=0 / weightp=2 / keyint=250 / keyint_min=23 / scenecut=40 / intra_refresh=0 / rc_lookahead=40 / rc=crf / mbtree=0 / crf=18.0 / qcomp=0.60 / qpmin=0 / qpmax=69 / qpstep=4 / vbv_maxrate=50000 / vbv_bufsize=62500 / crf_max=0.0 / nal_hrd=none / ip_ratio=1.40 / pb_ratio=1.30 / aq=2:0.60
Language : Russian
Default : Yes
Forced : No
Matrix coefficients : BT.709-5, BT.1361, IEC 61966-2-4 709, SMPTE RP177

Audio
ID : 2
Format : AC-3
Format/Info : Audio Coding 3
Mode extension : CM (complete main)
Codec ID : A_AC3
Duration : 52mn 57s
Bit rate mode : Constant
Bit rate : 448 Kbps
Channel(s) : 6 channels
Channel positions : Front: L C R, Side: L R, LFE
Sampling rate : 48.0 KHz
Bit depth : 16 bits
Compression mode : Lossy
Stream size : 170 MiB (5%)
Language : Russian
Default : Yes
Forced : No






Автор рипа: Skazhutin
Аватара пользователя
Korsar
Помощник Администратора-Корсар
 
Месяцев на трекере: 7Месяцев на трекере: 7Месяцев на трекере: 7Месяцев на трекере: 7Месяцев на трекере: 7Месяцев на трекере: 7Месяцев на трекере: 7
 
Зарегистрирован: 15 авг 2016, 17:15
В кошельке: 53,697.00
Банк: 0.00
Откуда: CCCР
Флаги:
СССР

Награды: 2
За отличные раздачи (1) Верный Сид (1)
  • Торрент
Автор: Korsar Хэш: ---
Добавлен: 03 дек 2016, 22:33 Приватный: Нет (DHT включён)
Статус: Проверен
Размер: 22.1 ГБ (23 724 599 016 байт)
Изменил: Korsar (03 дек 2016, 22:36)
Скачали: 0 (Раздающих: 100%)
Причина:
---
Здоровье: 100%
Сидеров: 3 Личеров: 1
Скорость раздачи: 0 байт/сек Скорость скачивания: 0 байт/сек
Последний сидер: 3 дня 10 часов 47 минут 21 секунду назад Последний личер: 3 дня 10 часов 47 минут 21 секунду назад
Для скачивания торрента необходимо зарегистрироваться или войти на трекер.

Вернуться в Русские сериалы (HD Video)

На Korsar.tv нет рекламы, для доступа ко всем возможностям отключите блокировщики рекламы!!!
проверить сайт