logo
Международный русскоязычный
торрент-трекер
Menu

Doublon
Поделиться с друзьями: 
Голосуй за Корсар и получи 400 дублонов
Рейтинг торрент трекеров - UpTracker.ru

Летающий корабль призрак / Sora Tobu Y Ureisen (1969, мультфильм, HDDVDRip 720p) - KORSAR

Только для раздач видео разрешением 1280х*** и более

Сообщение likko » 27 мар 2017, 10:50

Название: Летающий корабль призрак
Оригинальное название: Sora Tobu Y Ureisen
Год выпуска: 1969
Страна: Япония
Жанр: Мультфильм
Продолжительность: 1:00:31

Режиссер: Хироши Икеда

Роли озвучивали:
Союзмультфильм: Алексей Консовский, Мария Виноградова, Ольга Громова, Владимир Ферапонтов, Владимир Кенигсон, Роза Макагонова
Реанимедиа: Андрей Новиков, Алина Тарасова, Елена Симанович, Гозий Махмудов, Александр Фильченко, Вероника Райциз

Описание: Город, в котором живёт маленький Хаято, подвергся нападению гигантского робота. Родители Хаято погибли под обломками, и единственный оставшийся друг — это его собака. Хаято хочет отомстить владельцу таинственного Корабля-призрака, ведь робот представился его посланником.
Потеряв семью, он попадает в дом господина Куросио, главного борца с Кораблём-призраком, крупнейшего магната в городе. И совершенно случайно Хаято попадает на секретный подземный завод, где узнаёт, что реальное положение вещей не соответствует словам господина Куросио.
Теперь его жизнь подвергается большой опасности, и только он один может помешать планам злодеев.

Качество: HDDVDRip 720p
Формат: MKV
Видео: MPEG4 Video (H264), 1280x552, 29.97fps, 5000 kbps
Аудио: Русский, Dolby AC3, 48000 Hz, 2ch, 192 kbps - Дубляж (Союзмультфильм)
Аудио: Русский, Dolby AC3, 48000 Hz, 2ch, 192 kbps - Дубляж (Реанимедия)
Аудио: Русский, Dolby AC3, 48000 Hz, 6ch, 384 kbps - Многоголосый
Аудио: Японский, Dolby AC3, 48000 Hz, 6ch, 384 kbps


General
Unique ID : 184351363817876283300090770585933832094 (0x8AB0C7FBD770F77681DDB0854AB3DF9E)
Complete name : D:\DVDRip\1969 Летучий корабль-призрак\1969 Летучий корабль-призрак.mkv
Format : Matroska
Format version : Version 4 / Version 2
File size : 2.60 GiB
Duration : 1 h 0 min
Overall bit rate : 6 156 kb/s
Movie name : 1969 Летучий корабль-призрак/likko
Encoded date : UTC 2017-03-27 01:38:53
Writing application : mkvmerge v8.3.0 ('Over the Horizon') 64bit
Writing library : libebml v1.3.1 + libmatroska v1.4.2

Video
ID : 1
Format : AVC
Format/Info : Advanced Video Codec
Format profile : High@L4.1
Format settings, CABAC : Yes
Format settings, ReFrames : 12 frames
Codec ID : V_MPEG4/ISO/AVC
Duration : 1 h 0 min
Bit rate : 5 000 kb/s
Width : 1 280 pixels
Height : 552 pixels
Display aspect ratio : 2.35:1
Frame rate mode : Constant
Frame rate : 29.970 (30000/1001) FPS
Color space : YUV
Chroma subsampling : 4:2:0
Bit depth : 8 bits
Scan type : Progressive
Bits/(Pixel*Frame) : 0.236
Stream size : 2.11 GiB (81%)
Title : 1969 Летучий корабль-призрак
Writing library : x264 core 146 r2538 121396c
Encoding settings : cabac=1 / ref=12 / deblock=1:-1:-1 / analyse=0x3:0x133 / me=umh / subme=11 / psy=1 / psy_rd=1.07:0.15 / mixed_ref=1 / me_range=32 / chroma_me=1 / trellis=2 / 8x8dct=1 / cqm=0 / deadzone=21,11 / fast_pskip=0 / chroma_qp_offset=-3 / threads=12 / lookahead_threads=3 / sliced_threads=0 / nr=0 / decimate=1 / interlaced=0 / bluray_compat=0 / constrained_intra=0 / bframes=12 / b_pyramid=2 / b_adapt=2 / b_bias=0 / direct=3 / weightb=1 / open_gop=0 / weightp=2 / keyint=250 / keyint_min=25 / scenecut=40 / intra_refresh=0 / rc=2pass / mbtree=0 / bitrate=5000 / ratetol=1.0 / qcomp=0.60 / qpmin=0 / qpmax=69 / qpstep=4 / cplxblur=20.0 / qblur=0.5 / ip_ratio=1.40 / pb_ratio=1.30 / aq=2:1.00
Language : Japanese
Default : Yes
Forced : No

Audio #1
ID : 2
Format : AC-3
Format/Info : Audio Coding 3
Format settings, Endianness : Big
Codec ID : A_AC3
Duration : 1 h 0 min
Bit rate mode : Constant
Bit rate : 192 kb/s
Channel(s) : 2 channels
Channel positions : Front: L R
Sampling rate : 48.0 kHz
Frame rate : 31.250 FPS (1536 spf)
Bit depth : 16 bits
Compression mode : Lossy
Stream size : 83.1 MiB (3%)
Title : Дубляж (Союзмультфильм)
Language : Russian
Service kind : Complete Main
Default : Yes
Forced : No

Audio #2
ID : 3
Format : AC-3
Format/Info : Audio Coding 3
Format settings, Endianness : Big
Codec ID : A_AC3
Duration : 1 h 0 min
Bit rate mode : Constant
Bit rate : 192 kb/s
Channel(s) : 2 channels
Channel positions : Front: L R
Sampling rate : 48.0 kHz
Frame rate : 31.250 FPS (1536 spf)
Bit depth : 16 bits
Compression mode : Lossy
Stream size : 83.1 MiB (3%)
Title : Дубляж (Реанимедия)
Language : Russian
Service kind : Complete Main
Default : No
Forced : No

Audio #3
ID : 4
Format : AC-3
Format/Info : Audio Coding 3
Format settings, Endianness : Big
Codec ID : A_AC3
Duration : 1 h 0 min
Bit rate mode : Constant
Bit rate : 384 kb/s
Channel(s) : 6 channels
Channel positions : Front: L C R, Side: L R, LFE
Sampling rate : 48.0 kHz
Frame rate : 31.250 FPS (1536 spf)
Bit depth : 16 bits
Compression mode : Lossy
Stream size : 166 MiB (6%)
Title : Многоголосый
Language : Russian
Service kind : Complete Main
Default : No
Forced : No

Audio #4
ID : 5
Format : AC-3
Format/Info : Audio Coding 3
Format settings, Endianness : Big
Codec ID : A_AC3
Duration : 1 h 0 min
Bit rate mode : Constant
Bit rate : 384 kb/s
Channel(s) : 6 channels
Channel positions : Front: L C R, Side: L R, LFE
Sampling rate : 48.0 kHz
Frame rate : 31.250 FPS (1536 spf)
Bit depth : 16 bits
Compression mode : Lossy
Stream size : 166 MiB (6%)
Language : Japanese
Service kind : Complete Main
Default : No
Forced : No

Menu
00:00:00.000 : en:Chapter 01
00:01:02.062 : en:Chapter 02
00:03:14.861 : en:Chapter 03
00:07:04.140 : en:Chapter 04
00:13:10.322 : en:Chapter 05
00:22:15.367 : en:Chapter 06
00:27:27.979 : en:Chapter 07
00:32:53.237 : en:Chapter 08
00:40:07.121 : en:Chapter 09
00:45:45.709 : en:Chapter 10
00:50:21.068 : en:Chapter 11
00:58:49.859 : en:Chapter 12









Аватара пользователя
likko
Уважаемый Релизёр-Корсар
 
 

Награды: 21
Лучший по количеству кубков (14) За отличные раздачи и качество (3) Верный Сид (1)
Раздачи группы KORSAR разрешено перезаливать спустя сутки после публикации
  • Торрент
Для скачивания торрента необходимо зарегистрироваться или войти на трекер.

Сообщение mister.hats » 27 мар 2017, 11:04

Игорь спасибо :-drinks:
Смотрел первый раз на премьере а Москве,74 или 75 ый год,точно не помню но был в восторге.
А в прокате он шел по моему как Корабль призрак.

Тот кто не с нами, тот против нас
Аватара пользователя
mister.hats
Заслуженный Корсар-Вип
 
 

Награды: 48
За помощь проекту (6) Лучший по количеству кубков (12) За отличные раздачи и качество (20) За подробное оформление раздач (1) За отличные комментарии (1) Верный Сид (8)

Сообщение likko » 27 мар 2017, 11:07

mister.hats писал(а):А в прокате он шел по моему как Корабль призрак

Совершенно верно, Корабль-призрак. Хоть и мультик, но дети и взрослые валили на него. :hi: :drinks:
Аватара пользователя
likko
Уважаемый Релизёр-Корсар
 
 

Награды: 21
Лучший по количеству кубков (14) За отличные раздачи и качество (3) Верный Сид (1)

Сообщение kwazar312 » 27 мар 2017, 11:17

Уважаемый likko,большое спасибо за мультфильм.Я что-то не помню такой,тем лучше,посмотрю как новый.Удачи ВАМ.
Аватара пользователя
kwazar312
Заслуженный Корсар-Вип
 
 

Награды: 63
За помощь проекту (7) Лучший по количеству кубков (16) За отличные комментарии (10) Верный Сид (25) За участие в конкурсах/играх (5)

Сообщение likko » 27 мар 2017, 11:26

kwazar312 писал(а):Я что-то не помню такой

В те времена ещё шли мультфильмы, Кот в сапогах (1969) и Кругосветное путешествие Кота в сапогах (1976), тоже японские.
Аватара пользователя
likko
Уважаемый Релизёр-Корсар
 
 

Награды: 21
Лучший по количеству кубков (14) За отличные раздачи и качество (3) Верный Сид (1)

Сообщение bagrad » 27 мар 2017, 15:31

Спасибо большое Игорь! :hi: Но я то же похоже не видел этот мульт. :roll:
Dum spíro, spéro!
Аватара пользователя
bagrad
Заслуженный Корсар-Вип
 
 

Награды: 19
За помощь проекту (2) Лучший по количеству кубков (9) За отличные комментарии (1) Верный Сид (7)

Сообщение matveysmirnv » 24 июн 2018, 15:13

Уважаемые, раздайте! ))) :hi: :ura:
Аватара пользователя
matveysmirnv
Опытный Корсар
 
 

Награды: 1
Верный Сид (1)

Сообщение kwazar312 » 24 июн 2018, 15:48

файл на раздаче.Удачи!
Аватара пользователя
kwazar312
Заслуженный Корсар-Вип
 
 

Награды: 63
За помощь проекту (7) Лучший по количеству кубков (16) За отличные комментарии (10) Верный Сид (25) За участие в конкурсах/играх (5)

Сообщение kwazar312 » 19 июл 2018, 15:54

фильм на раздаче,скачивайте.Удачи!
Аватара пользователя
kwazar312
Заслуженный Корсар-Вип
 
 

Награды: 63
За помощь проекту (7) Лучший по количеству кубков (16) За отличные комментарии (10) Верный Сид (25) За участие в конкурсах/играх (5)


Вернуться в Аниме (HD Video)



Uptime по данным Ping-Admin.Ru - сервиса мониторинга доступности сайтов
Рейтинг@Mail.ru Голосуйте за наш сайт в каталоге Rubo.Ru
cron