logo
Международный русскоязычный
торрент-трекер
Menu

Doublon
Поделиться с друзьями: 
Голосуй за Корсар и получи 400 дублонов
Рейтинг торрент трекеров - UpTracker.ru

Леонардо: Миссия Мона Лиза / Leo Da Vinci: Mission Mona Lisa (2018, мультфильм, приключения, семейный, BDRip 720p) | Лицензия

Сообщение Korsarka » 27 сен 2018, 05:06

Название: Леонардо: Миссия Мона Лиза
Оригинальное название: Leo Da Vinci: Mission Mona Lisa
Год выхода: 2018
Жанр: мультфильм, приключения, семейный
Режиссер: Серджо Манфио
Роли озвучивали: Алекс Полидори, Эмануэла Ионика, Габриэль Патриарка, Арианна Виньоли, Джулио Бартоломеи, Роберто Драгетти, Франко Маннелла, Роберто Стокки, Давид Джарболино, Стефано Мондини

О фильме: Леонардо живёт спокойной и мирной жизнью, посвятив себя изобретательству. Его друг Лоренцо во всём помогает товарищу и поддерживает во всех начинаниях, а вот прекрасная Джоконда насмехается над странными идеями Леонардо. Но вскоре в жизни девушки происходит несчастье — в ее доме происходит пожар, и она остается ни с чем. Однажды в их город забредает рассказчик, который упоминает о потерянном сокровище, которое ещё никому не удавалось найти. Ребята решают, что им повезёт, и отправляются в удивительное путешествие.



Страна: Италия
Студия: Gruppo Alcuni
Продолжительность: 01:21:46
Перевод: профессиональный (дублированный) лицензия

Формат: MKV
Качество: BDRip 720р
Видео: MPEG-4 AVC, 1280x536 (2.40:1), 3955 Kbit/s, 24.000 fps, 0,240 bpp
Звук:
Аудио 1: 48 kHz, AC3, 5.1 ch, 448 Kbps | RUS
Аудио 2: 48 kHz, AC3, 5.1 ch, 640 Kbps | ITA

Сохранены чаптеры как на Blu-Ray

General
Unique ID : 219937824751124787813871532439674477278 (0xA5767BF8687FDA7FAC564807777ADADE)
Complete name : D:\Leo.Da.Vinci.Mission.Mona.Lisa.2018.BDRip.720p.ExKinoRay.mkv
Format : Matroska
Format version : Version 2
File size : 2.88 GiB
Duration : 1 h 21 min
Overall bit rate : 5 045 kb/s
Movie name : Leo Da Vinci: Mission Mona Lisa (2018) from ExKinoRay
Encoded date : UTC 2018-09-24 11:56:08
Writing application : mkvmerge v5.6.0 ('Kenya Kane') built on May 27 2012 16:44:04
Writing library : libebml v1.2.3 + libmatroska v1.3.0

Video
ID : 1
Format : AVC
Format/Info : Advanced Video Codec
Format profile : High@L4.1
Format settings, CABAC : Yes
Format settings, ReFrames : 12 frames
Codec ID : V_MPEG4/ISO/AVC
Duration : 1 h 21 min
Bit rate : 3 955 kb/s
Width : 1 280 pixels
Height : 536 pixels
Display aspect ratio : 2.40:1
Frame rate mode : Constant
Frame rate : 24.000 FPS
Color space : YUV
Chroma subsampling : 4:2:0
Bit depth : 8 bits
Scan type : Progressive
Bits/(Pixel*Frame) : 0.240
Stream size : 2.20 GiB (76%)
Title : Enigma
Writing library : x264 core 152 r2851 ba24899
Encoding settings : cabac=1 / ref=12 / deblock=1:-2:-2 / analyse=0x3:0x113 / me=umh / subme=10 / psy=1 / psy_rd=1.05:0.10 / mixed_ref=1 / me_range=32 / chroma_me=1 / trellis=2 / 8x8dct=1 / cqm=0 / deadzone=21,11 / fast_pskip=0 / chroma_qp_offset=-3 / threads=12 / lookahead_threads=3 / sliced_threads=0 / nr=0 / decimate=0 / interlaced=0 / bluray_compat=0 / constrained_intra=0 / bframes=12 / b_pyramid=2 / b_adapt=2 / b_bias=0 / direct=3 / weightb=1 / open_gop=0 / weightp=2 / keyint=240 / keyint_min=24 / scenecut=40 / intra_refresh=0 / rc=2pass / mbtree=0 / bitrate=3955 / ratetol=1.0 / qcomp=0.60 / qpmin=0 / qpmax=51 / qpstep=4 / cplxblur=20.0 / qblur=0.5 / ip_ratio=1.40 / pb_ratio=1.30 / aq=1:1.00
Language : English
Default : Yes
Forced : No
Color range : Limited
Color primaries : BT.709
Transfer characteristics : BT.709
Matrix coefficients : BT.709

Audio #1
ID : 2
Format : AC-3
Format/Info : Audio Coding 3
Mode extension : CM (complete main)
Format settings, Endianness : Big
Codec ID : A_AC3
Duration : 1 h 21 min
Bit rate mode : Constant
Bit rate : 448 kb/s
Channel(s) : 6 channels
Channel positions : Front: L C R, Side: L R, LFE
Sampling rate : 48.0 kHz
Frame rate : 31.250 FPS (1536 spf)
Compression mode : Lossy
Stream size : 262 MiB (9%)
Title : Dub (R5)
Language : Russian
Default : Yes
Forced : No

Audio #2
ID : 3
Format : AC-3
Format/Info : Audio Coding 3
Mode extension : CM (complete main)
Format settings, Endianness : Big
Codec ID : A_AC3
Duration : 1 h 21 min
Bit rate mode : Constant
Bit rate : 640 kb/s
Channel(s) : 6 channels
Channel positions : Front: L C R, Side: L R, LFE
Sampling rate : 48.0 kHz
Frame rate : 31.250 FPS (1536 spf)
Compression mode : Lossy
Stream size : 374 MiB (13%)
Language : Italian
Default : No
Forced : No

Menu
00:00:00.000 : :Chapter 01
00:00:44.000 : :Chapter 02
00:08:32.291 : :Chapter 03
00:14:26.541 : :Chapter 04
00:20:44.666 : :Chapter 05
00:29:09.458 : :Chapter 06
00:37:08.666 : :Chapter 07
00:42:49.000 : :Chapter 08
00:48:59.416 : :Chapter 09
00:54:16.041 : :Chapter 10
01:03:08.916 : :Chapter 11
01:10:37.666 : :Chapter 12
01:18:31.166 : :Chapter 13





Релиз от:

Автор релиза:
Аватара пользователя
Korsarka
Уважаемый Релизёр-Корсар
 
 

Награды: 22
Лучший по количеству кубков (3) За отличные раздачи и качество (9) За подробное оформление раздач (1) За отличные комментарии (1) Верный Сид (5)
  • Торрент
Для скачивания торрента необходимо зарегистрироваться или войти на трекер.

Вернуться в Зарубежные мультсериалы (HD Video)



Uptime по данным Ping-Admin.Ru - сервиса мониторинга доступности сайтов
Рейтинг@Mail.ru Голосуйте за наш сайт в каталоге Rubo.Ru
cron