logo
Международный русскоязычный
торрент-трекер
Menu

Doublon
Поделиться с друзьями: 
Голосуй за Корсар и получи 400 дублонов
Рейтинг торрент трекеров - UpTracker.ru

Ленкому - 90 (2017, Праздничный вечер, HDTV 1080i)

Сообщение mister Pitkin » 10 фев 2017, 13:02

Ленкому - 90. Праздничный вечер 2017.02.04

Год выпуска: 2017
Страна: Россия
Жанр: Праздничный вечер
Продолжительность: 01:40:00
Перевод: Не требуется

Описание: Знаменитому московскому театру «Ленком» исполняется 90 лет. В честь юбилея в театре состоялся праздничный концерт. В зрительном зале и на сцене собрались друзья, коллеги и поклонники. «Ленком» поздравили артисты Большого, Вахтанговского, Театра сатиры и молодое поколение — студенты Щукинского училища. «Театру надо желать только одного — чтобы он не превращался в мемориал. „Ленком“ — это визитная карточка Москвы», — сказал народный артист РСФСР Геннадий Хазанов.

Качество: HDTV
Разрешение видео/развертка: 1080i
Контейнер: TS
Видео кодек: H.264
Аудио кодек: AC3
Видео: 1920x1080 (16:9) 25.000 fps ~ 7 783 kb/s
Аудио 1: AC3, 6 channels, 48000Hz, 384 Кбит/сек
Аудио 2: MPEG Audio 48000Hz stereo 224 Кбит/сек

Код: Выделить всё
General
ID                             : 1 (0x1)
Complete name                  : C:\Ленкому - 90. Праздничный вечер 2017.02.04.ts
Format                         : MPEG-TS
File size                      : 6.18 GiB
Duration                       : 1 h 40 min
Overall bit rate mode          : Variable
Overall bit rate               : 8 833 kb/s

Video
ID                             : 2101 (0x835)
Menu ID                        : 101 (0x65)
Format                         : AVC
Format/Info                    : Advanced Video Codec
Format profile                 : High@L4
Format settings, CABAC         : Yes
Format settings, ReFrames      : 3 frames
Codec ID                       : 27
Duration                       : 1 h 40 min
Bit rate                       : 7 783 kb/s
Width                          : 1 920 pixels
Height                         : 1 080 pixels
Display aspect ratio           : 16:9
Frame rate                     : 25.000 FPS
Standard                       : Component
Color space                    : YUV
Chroma subsampling             : 4:2:0
Bit depth                      : 8 bits
Scan type                      : Interlaced
Scan type, store method        : Separated fields
Scan order                     : Top Field First
Bits/(Pixel*Frame)             : 0.150
Stream size                    : 5.44 GiB (88%)
Color range                    : Limited
Color primaries                : BT.709
Transfer characteristics       : BT.709
Matrix coefficients            : BT.709

Audio #1
ID                             : 3101 (0xC1D)
Menu ID                        : 101 (0x65)
Format                         : AC-3
Format/Info                    : Audio Coding 3
Mode extension                 : CM (complete main)
Format settings, Endianness    : Big
Codec ID                       : 6
Duration                       : 1 h 40 min
Bit rate mode                  : Constant
Bit rate                       : 384 kb/s
Channel(s)                     : 6 channels
Channel positions              : Front: L C R, Side: L R, LFE
Sampling rate                  : 48.0 kHz
Frame rate                     : 31.250 FPS (1536 spf)
Bit depth                      : 16 bits
Compression mode               : Lossy
Stream size                    : 275 MiB (4%)
Language                       : Russian

Audio #2
ID                             : 3102 (0xC1E)
Menu ID                        : 101 (0x65)
Format                         : MPEG Audio
Format version                 : Version 1
Format profile                 : Layer 2
Codec ID                       : 3
Duration                       : 1 h 40 min
Bit rate mode                  : Constant
Bit rate                       : 224 kb/s
Channel(s)                     : 2 channels
Sampling rate                  : 48.0 kHz
Compression mode               : Lossy
Stream size                    : 160 MiB (3%)
Language                       : Russian


Аватара пользователя
mister Pitkin
Опытный Релизёр-Корсар
 
 

Награды: 7
За отличные раздачи и качество (3)
  • Торрент
Для скачивания торрента необходимо зарегистрироваться или войти на трекер.

Вернуться в Бенефис. Мастера искусств отечественного Театра и Кино



Uptime по данным Ping-Admin.Ru - сервиса мониторинга доступности сайтов
Рейтинг@Mail.ru Голосуйте за наш сайт в каталоге Rubo.Ru
cron