logo
Международный русскоязычный
торрент-трекер
Menu
"Бунт на корабле", за скачанные торрент-файлы дублоны не снимаются. Возможность оплачена пользователем filbi1976.
Doublon
Поделиться с друзьями: 
Голосуй за Корсар и получи 500 дублонов
Рейтинг торрент трекеров - UpTracker.ru

Ленинград - Рыба (2012, Rock, FLAC)

Сообщение likko » 11 янв 2017, 10:09

Ленинград Рыба



Жанр: Rock
Страна-производитель диска: Россия
Год издания: 2012
Издатель (лейбл): ШнурОК
Номер по каталогу: ШнурОК - 18
Страна: Россия
Аудиокодек: FLAC (*.flac)
Тип рипа: tracks+.cue
Битрейт аудио: lossless
Продолжительность: 00:36:30
Источник (релизер): Собственный рип
Наличие сканов в содержимом раздачи: да

Треклист:
01. Москва 03:14
02. Мы за! 02:32
03. Вода 02:20
04. Рыба 02:43
05. 87 03:24
06. Непросто 02:27
07. Желуди 02:49
08. Бах 02:47
09. Юлия 03:33
10. Бомбила 02:40
11. ... 03:12
12. Красота 02:34
13. Рыба 2 02:09
Код: Выделить всё
Exact Audio Copy V1.0 beta 3 from 29. August 2011

Отчёт EAC об извлечении, выполненном 16. ноября 2012, 6:29

Ленинград / Рыба

Дисковод: ASUS    DRW-24B5ST   Adapter: 2  ID: 0

Режим чтения                 : Достоверность
Использование точного потока : Да
Отключение кэша аудио        : Да
Использование указателей C2  : Нет

Коррекция смещения при чтении                     : 6
Способность читать области Lead-in и Lead-out     : Нет
Заполнение пропущенных сэмплов тишиной            : Да
Удаление блоков с тишиной в начале и конце        : Нет
При вычислениях CRC использовались нулевые сэмплы : Да
Интерфейс                                         : Встроенный Win32-интерфейс для Win NT/2000
Обработка зазоров                                 : Добавлено к предыдущему треку

Выходной формат          : Пользовательский кодировщик
Выбранный битрейт        : 128 kBit/s
Качество                  : Высокий
Добавление ID3-тега      : Нет
Утилита сжатия           : C:\Program Files\Exact Audio Copy\Flac\flac.exe
Дополнительные параметры : -V -8 -T "Genre=%genre%" -T "Artist=%artist%" -T "Title=%title%" -T "Album=%albumtitle%" -T "Date=%year%" -T "Tracknumber=%tracknr%" -T "Comment=%comment%" %source%

TOC извлечённого CD

     Трек |   Старт  | Длительность | Начальный сектор | Конечный сектор
    ---------------------------------------------------------------------
       1  |  0:00.00 |    3:14.53   |           0      |      14602
       2  |  3:14.53 |    2:32.57   |       14603      |      26059
       3  |  5:47.35 |    2:20.10   |       26060      |      36569
       4  |  8:07.45 |    2:43.59   |       36570      |      48853
       5  | 10:51.29 |    3:24.26   |       48854      |      64179
       6  | 14:15.55 |    2:27.26   |       64180      |      75230
       7  | 16:43.06 |    2:49.24   |       75231      |      87929
       8  | 19:32.30 |    2:47.64   |       87930      |     100518
       9  | 22:20.19 |    3:33.27   |      100519      |     116520
      10  | 25:53.46 |    2:40.66   |      116521      |     128586
      11  | 28:34.37 |    3:12.41   |      128587      |     143027
      12  | 31:47.03 |    2:34.31   |      143028      |     154608
      13  | 34:21.34 |    2:09.24   |      154609      |     164307

Трек  1

     Имя файла F:\Download\MUSIC\RUSSIAN\Ленинград\Ленинград - 2012 - Рыба - 01 - Москва.wav

     Длина предзазора  0:00:02.00

     Пиковый уровень 100.0 %
     Скорость извлечения 4.5 X
     Качество трека 100.0 %
     CRC копии 43C29485
     Копирование... OK

Трек  2

     Имя файла F:\Download\MUSIC\RUSSIAN\Ленинград\Ленинград - 2012 - Рыба - 02 - Мы за!.wav

     Длина предзазора  0:00:00.37

     Пиковый уровень 100.0 %
     Скорость извлечения 4.4 X
     Качество трека 100.0 %
     CRC копии CD4567FA
     Копирование... OK

Трек  3

     Имя файла F:\Download\MUSIC\RUSSIAN\Ленинград\Ленинград - 2012 - Рыба - 03 - Вода.wav

     Длина предзазора  0:00:00.37

     Пиковый уровень 100.0 %
     Скорость извлечения 4.7 X
     Качество трека 100.0 %
     CRC копии 407BBF46
     Копирование... OK

Трек  4

     Имя файла F:\Download\MUSIC\RUSSIAN\Ленинград\Ленинград - 2012 - Рыба - 04 - Рыба.wav

     Длина предзазора  0:00:00.37

     Пиковый уровень 100.0 %
     Скорость извлечения 5.1 X
     Качество трека 100.0 %
     CRC копии 2347B98D
     Копирование... OK

Трек  5

     Имя файла F:\Download\MUSIC\RUSSIAN\Ленинград\Ленинград - 2012 - Рыба - 05 - 87.wav

     Длина предзазора  0:00:00.37

     Пиковый уровень 100.0 %
     Скорость извлечения 5.6 X
     Качество трека 100.0 %
     CRC копии 96130E85
     Копирование... OK

Трек  6

     Имя файла F:\Download\MUSIC\RUSSIAN\Ленинград\Ленинград - 2012 - Рыба - 06 - Непросто.wav

     Длина предзазора  0:00:00.37

     Пиковый уровень 100.0 %
     Скорость извлечения 5.3 X
     Качество трека 100.0 %
     CRC копии F84E1F6B
     Копирование... OK

Трек  7

     Имя файла F:\Download\MUSIC\RUSSIAN\Ленинград\Ленинград - 2012 - Рыба - 07 - Желуди.wav

     Длина предзазора  0:00:00.37

     Пиковый уровень 100.0 %
     Скорость извлечения 4.7 X
     Качество трека 99.9 %
     CRC копии 796287E7
     Копирование... OK

Трек  8

     Имя файла F:\Download\MUSIC\RUSSIAN\Ленинград\Ленинград - 2012 - Рыба - 08 - Бах.wav

     Длина предзазора  0:00:00.37

     Пиковый уровень 100.0 %
     Скорость извлечения 6.0 X
     Качество трека 100.0 %
     CRC копии E767F4F4
     Копирование... OK

Трек  9

     Имя файла F:\Download\MUSIC\RUSSIAN\Ленинград\Ленинград - 2012 - Рыба - 09 - Юлия.wav

     Длина предзазора  0:00:00.37

     Пиковый уровень 100.0 %
     Скорость извлечения 6.4 X
     Качество трека 100.0 %
     CRC копии 2DAA2DA4
     Копирование... OK

Трек 10

     Имя файла F:\Download\MUSIC\RUSSIAN\Ленинград\Ленинград - 2012 - Рыба - 10 - Бомбила.wav

     Длина предзазора  0:00:00.37

     Пиковый уровень 100.0 %
     Скорость извлечения 6.2 X
     Качество трека 100.0 %
     CRC копии 8283EECE
     Копирование... OK

Трек 11

     Имя файла F:\Download\MUSIC\RUSSIAN\Ленинград\Ленинград - 2012 - Рыба - 11 - ....wav

     Длина предзазора  0:00:00.37

     Пиковый уровень 100.0 %
     Скорость извлечения 5.5 X
     Качество трека 99.9 %
     CRC копии AA19FA94
     Копирование... OK

Трек 12

     Имя файла F:\Download\MUSIC\RUSSIAN\Ленинград\Ленинград - 2012 - Рыба - 12 - Красота.wav

     Длина предзазора  0:00:00.37

     Пиковый уровень 100.0 %
     Скорость извлечения 6.5 X
     Качество трека 100.0 %
     CRC копии 875E644A
     Копирование... OK

Трек 13

     Имя файла F:\Download\MUSIC\RUSSIAN\Ленинград\Ленинград - 2012 - Рыба - 13 - Рыба 2.wav

     Длина предзазора  0:00:00.37

     Пиковый уровень 100.0 %
     Скорость извлечения 6.3 X
     Качество трека 100.0 %
     CRC копии 5732A0CA
     Копирование... OK

Ошибок не произошло

Конец отчёта

==== Контрольная сумма отчёта 74AC2B3ED2FEFFEBED7B1EFB1B54A12713F3F70BF481BD80B3727E9A59116907 ====
Код: Выделить всё
REM GENRE Rock
REM DATE 2012
REM DISCID B3088E0D
REM COMMENT "ExactAudioCopy v1.0b3"
PERFORMER "Ленинград"
TITLE "Рыба"
FILE "Ленинград - 2012 - Рыба - 01 - Москва.wav" WAVE
  TRACK 01 AUDIO
    TITLE "Москва"
    PERFORMER "Ленинград"
    INDEX 01 00:00:00
  TRACK 02 AUDIO
    TITLE "Мы за!"
    PERFORMER "Ленинград"
    INDEX 00 03:14:16
FILE "Ленинград - 2012 - Рыба - 02 - Мы за!.wav" WAVE
    INDEX 01 00:00:00
  TRACK 03 AUDIO
    TITLE "Вода"
    PERFORMER "Ленинград"
    INDEX 00 02:32:20
FILE "Ленинград - 2012 - Рыба - 03 - Вода.wav" WAVE
    INDEX 01 00:00:00
  TRACK 04 AUDIO
    TITLE "Рыба"
    PERFORMER "Ленинград"
    INDEX 00 02:19:48
FILE "Ленинград - 2012 - Рыба - 04 - Рыба.wav" WAVE
    INDEX 01 00:00:00
  TRACK 05 AUDIO
    TITLE "87"
    PERFORMER "Ленинград"
    INDEX 00 02:43:22
FILE "Ленинград - 2012 - Рыба - 05 - 87.wav" WAVE
    INDEX 01 00:00:00
  TRACK 06 AUDIO
    TITLE "Непросто"
    PERFORMER "Ленинград"
    INDEX 00 03:23:64
FILE "Ленинград - 2012 - Рыба - 06 - Непросто.wav" WAVE
    INDEX 01 00:00:00
  TRACK 07 AUDIO
    TITLE "Желуди"
    PERFORMER "Ленинград"
    INDEX 00 02:26:64
FILE "Ленинград - 2012 - Рыба - 07 - Желуди.wav" WAVE
    INDEX 01 00:00:00
  TRACK 08 AUDIO
    TITLE "Бах"
    PERFORMER "Ленинград"
    INDEX 00 02:48:62
FILE "Ленинград - 2012 - Рыба - 08 - Бах.wav" WAVE
    INDEX 01 00:00:00
  TRACK 09 AUDIO
    TITLE "Юлия"
    PERFORMER "Ленинград"
    INDEX 00 02:47:27
FILE "Ленинград - 2012 - Рыба - 09 - Юлия.wav" WAVE
    INDEX 01 00:00:00
  TRACK 10 AUDIO
    TITLE "Бомбила"
    PERFORMER "Ленинград"
    INDEX 00 03:32:65
FILE "Ленинград - 2012 - Рыба - 10 - Бомбила.wav" WAVE
    INDEX 01 00:00:00
  TRACK 11 AUDIO
    TITLE "..."
    PERFORMER "Ленинград"
    INDEX 00 02:40:29
FILE "Ленинград - 2012 - Рыба - 11 - ....wav" WAVE
    INDEX 01 00:00:00
  TRACK 12 AUDIO
    TITLE "Красота"
    PERFORMER "Ленинград"
    INDEX 00 03:12:04
FILE "Ленинград - 2012 - Рыба - 12 - Красота.wav" WAVE
    INDEX 01 00:00:00
  TRACK 13 AUDIO
    TITLE "Рыба 2"
    PERFORMER "Ленинград"
    INDEX 00 02:33:69
FILE "Ленинград - 2012 - Рыба - 13 - Рыба 2.wav" WAVE
    INDEX 01 00:00:00
КУБКИ

СТАЖ

МЕДАЛИ
Награды:36

Лучший по количеству кубков (14) За отличные раздачи и качество (10) За отличные комментарии (5) Почётный форумчанин (3) Верный Сид (1)

Аватара пользователя
likko
Уважаемый Релизёр-Корсар
  • Торрент
Для скачивания торрента необходимо зарегистрироваться или войти на трекер.

Вернуться в Отечественный Рок (Lossless)



Uptime по данным Ping-Admin.Ru - сервиса мониторинга доступности сайтов
Рейтинг@Mail.ru