logo
Международный русскоязычный
торрент-трекер
Menu
"Бунт на корабле", за скачанные торрент-файлы дублоны не снимаются. Возможность оплачена пользователем filbi1976.
Doublon
Поделиться с друзьями: 
Голосуй за Корсар и получи 500 дублонов
Рейтинг торрент трекеров - UpTracker.ru

Ленинград - Последний Концерт Ленинграда (2010, Ska Rock, FLAC)

Сообщение likko » 11 янв 2017, 09:53

Ленинград - Последний Концерт Ленинграда


Жанр: Ska Rock
Страна-производитель диска: Россия
Год издания диска: 2010
Издатель (лейбл): Союз
Номер по каталогу: 7005-10
Страна: Россия
Аудио кодек: FLAC (*.flac)
Тип рипа: image+.cue
Битрейт аудио: lossless
Продолжительность: 1:07:31:18
Источник (релизер): CD личный
Наличие сканов в содержимом раздачи: да


01. Hello, Moscow
02. МДМ
03. ИТД
04. Паганини
05. Когда нет денег
06.Группа крови
07.Пидарасы
08.Дача
09. Свобода
10. WWW
11.Распиздяй
12. День рождения
13. Терминатор
14. Мамба
15. Менеджер
16. ПП
17. Мне бы в небо
18. Комон эврибади
19. Прогноз погоды
20. 007
21. Все это рэйв
22. Без тебя пиздец
23. Новый год

Код: Выделить всё
Exact Audio Copy V0.99 prebeta 5 from 4. May 2009

Отчёт EAC об извлечении, выполненном 1. октября 2010, 23:30

Ленинград /  Последний Концерт Ленинграда

Дисковод: SlimtypeDVD A DS8A2S   Adapter: 1  ID: 0

Режим чтения                 : Достоверность
Использование точного потока : Да
Отключение кэша аудио        : Да
Использование указателей C2  : Нет

Коррекция смещения при чтении                     : 6
Способность читать области Lead-in и Lead-out     : Нет
Заполнение пропущенных сэмплов тишиной            : Да
Удаление блоков с тишиной в начале и конце        : Нет
При вычислениях CRC использовались нулевые сэмплы : Да
Интерфейс                                         : Встроенный Win32-интерфейс для Win NT/2000

Выходной формат          : Пользовательский кодировщик
Выбранный битрейт        : 768 kBit/s
Качество                  : Высокий
Добавление ID3-тэга      : Нет
Утилита сжатия           : C:\Program Files\Exact Audio Copy\FLAC\FLAC.EXE
Дополнительные параметры : -6 -V -T "ARTIST=%a" -T "TITLE=%t" -T "ALBUM=%g" -T "DATE=%y" -T "TRACKNUMBER=%n" -T "GENRE=%m" -T "COMMENT=%e" %s -o %d

TOC извлечённого CD

     Трек |   Старт  | Длительность | Начальный сектор | Конечный сектор
    ---------------------------------------------------------------------
       1  |  0:00.00 |    2:27.27   |           0      |      11051
       2  |  2:27.27 |    3:02.22   |       11052      |      24723
       3  |  5:29.49 |    2:50.24   |       24724      |      37497
       4  |  8:19.73 |    2:21.41   |       37498      |      48113
       5  | 10:41.39 |    3:09.09   |       48114      |      62297
       6  | 13:50.48 |    4:37.54   |       62298      |      83126
       7  | 18:28.27 |    4:02.41   |       83127      |     101317
       8  | 22:30.68 |    2:13.57   |      101318      |     111349
       9  | 24:44.50 |    3:04.35   |      111350      |     125184
      10  | 27:49.10 |    2:28.57   |      125185      |     136341
      11  | 30:17.67 |    2:46.74   |      136342      |     148865
      12  | 33:04.66 |    1:28.25   |      148866      |     155490
      13  | 34:33.16 |    3:40.52   |      155491      |     172042
      14  | 38:13.68 |    2:11.25   |      172043      |     181892
      15  | 40:25.18 |    3:13.24   |      181893      |     196391
      16  | 43:38.42 |    3:27.69   |      196392      |     211985
      17  | 47:06.36 |    3:52.18   |      211986      |     229403
      18  | 50:58.54 |    2:08.73   |      229404      |     239076
      19  | 53:07.52 |    2:17.25   |      239077      |     249376
      20  | 55:25.02 |    2:07.29   |      249377      |     258930
      21  | 57:32.31 |    4:16.22   |      258931      |     278152
      22  | 61:48.53 |    3:15.36   |      278153      |     292813
      23  | 65:04.14 |    2:27.04   |      292814      |     303842

Характеристики диапазона извлечения и сообщения об ошибках

Выбранный диапазон

     Имя файла D:\EAC\Ленинград - Последний Концерт Ленинграда (2010 Союз 7005-10) (Lossless)\Ленинград -  Последний Концерт Ленинграда.wav

     Пиковый уровень 99.6 %
     Качество диапазона 100.0 %
     CRC теста 57957537
     CRC копии 57957537
     Копирование... OK

Ошибок не произошло

AccurateRip: сводка

Трек  1  нет в базе данных
Трек  2  нет в базе данных
Трек  3  нет в базе данных
Трек  4  нет в базе данных
Трек  5  нет в базе данных
Трек  6  нет в базе данных
Трек  7  нет в базе данных
Трек  8  нет в базе данных
Трек  9  нет в базе данных
Трек 10  нет в базе данных
Трек 11  нет в базе данных
Трек 12  нет в базе данных
Трек 13  нет в базе данных
Трек 14  нет в базе данных
Трек 15  нет в базе данных
Трек 16  нет в базе данных
Трек 17  нет в базе данных
Трек 18  нет в базе данных
Трек 19  нет в базе данных
Трек 20  нет в базе данных
Трек 21  нет в базе данных
Трек 22  нет в базе данных
Трек 23  нет в базе данных

Ни одного трека нет в базе AccurateRip

Конец отчёта


КУБКИ

СТАЖ

МЕДАЛИ
Награды:36

Лучший по количеству кубков (14) За отличные раздачи и качество (10) За отличные комментарии (5) Почётный форумчанин (3) Верный Сид (1)

Аватара пользователя
likko
Уважаемый Релизёр-Корсар
  • Торрент
Для скачивания торрента необходимо зарегистрироваться или войти на трекер.

Вернуться в Отечественный Рок (Lossless)



Uptime по данным Ping-Admin.Ru - сервиса мониторинга доступности сайтов
Рейтинг@Mail.ru