logo
Международный русскоязычный
торрент-трекер
Menu
"Бунт на корабле", за скачанные торрент-файлы дублоны не снимаются. Возможность оплачена пользователем filbi1976.
Doublon
Поделиться с друзьями: 
Голосуй за Корсар и получи 500 дублонов
Рейтинг торрент трекеров - UpTracker.ru

Ленинград - Пляж наш (2014, Rock, FLAC)

Сообщение likko » 11 янв 2017, 10:19


Ленинград - Пляж наш
Жанр : ska, rock ||
Страна: Россия ||
Год выпуска: 2014 ||
Аудио кодек: FLAC ||
Тип рипа: image+.cue ||
Битрейт аудио: lossless ||
Продолжительность: 44:14
Производитель диска: (с)&(р) ШнурОК

Треклист:
01. Машина
02. Алкаш
03. Фиаско
04. Мат
05. Патриотка
06. Пока жив
07. Где мы есть
08. Дорожная
09. Никола
10. Е**баб
11. Шлюха
12. Х***нада
13. Масштаб
14. Похороны
15. БалаLIKE (feat. Slider & Magnit)
Рип снят в режиме Test&Copy!!!
Код: Выделить всё
Exact Audio Copy V1.0 beta 4 from 7. December 2014

EAC extraction logfile from 27. December 2014, 13:25

THE ЛЕНИНГРАД / ПЛЯЖ НАШ

Used drive  : MATSHITABD-CMB UJ160   Adapter: 0  ID: 0

Read mode               : Secure
Utilize accurate stream : Yes
Defeat audio cache      : Yes
Make use of C2 pointers : No

Read offset correction                      : 103
Overread into Lead-In and Lead-Out          : No
Fill up missing offset samples with silence : Yes
Delete leading and trailing silent blocks   : No
Null samples used in CRC calculations       : Yes
Used interface                              : Installed external ASPI interface

Used output format              : User Defined Encoder
Selected bitrate                : 896 kBit/s
Quality                         : High
Add ID3 tag                     : No
Command line compressor         : C:\Program Files (x86)\Exact Audio Copy\Flac\flac.exe
Additional command line options :  -T "DATE=%year%" -T "GENRE=%genre%" -8 -V %source%

TOC of the extracted CD

     Track |   Start  |  Length  | Start sector | End sector
    ---------------------------------------------------------
        1  |  0:00.00 |  2:38.30 |         0    |    11879
        2  |  2:38.30 |  2:49.54 |     11880    |    24608
        3  |  5:28.09 |  3:13.43 |     24609    |    39126
        4  |  8:41.52 |  3:09.64 |     39127    |    53365
        5  | 11:51.41 |  2:48.45 |     53366    |    66010
        6  | 14:40.11 |  2:47.60 |     66011    |    78595
        7  | 17:27.71 |  3:13.06 |     78596    |    93076
        8  | 20:41.02 |  2:47.49 |     93077    |   105650
        9  | 23:28.51 |  3:11.42 |    105651    |   120017
       10  | 26:40.18 |  2:30.36 |    120018    |   131303
       11  | 29:10.54 |  2:39.52 |    131304    |   143280
       12  | 31:50.31 |  3:10.48 |    143281    |   157578
       13  | 35:01.04 |  2:50.32 |    157579    |   170360
       14  | 37:51.36 |  3:07.06 |    170361    |   184391
       15  | 40:58.42 |  3:15.59 |    184392    |   199075

Range status and errors

Selected range

     Filename C:\Users\GREH\Desktop\THE ЛЕНИНГРАД - ПЛЯЖ НАШ\THE ЛЕНИНГРАД - ПЛЯЖ НАШ.wav

     Peak level 99.2 %
     Extraction speed 2.4 X
     Range quality 99.9 %
     Test CRC 81E59F11
     Copy CRC 81E59F11
     Copy OK

No errors occurred

AccurateRip summary

Track  1  not present in database
Track  2  not present in database
Track  3  not present in database
Track  4  not present in database
Track  5  not present in database
Track  6  not present in database
Track  7  not present in database
Track  8  not present in database
Track  9  not present in database
Track 10  not present in database
Track 11  not present in database
Track 12  not present in database
Track 13  not present in database
Track 14  not present in database
Track 15  not present in database

None of the tracks are present in the AccurateRip database

End of status report

---- CUETools DB Plugin V2.1.4

[CTDB TOCID: n4Z40x_w2XONipedhUTbhpJkhSM-] disk not present in database
Submit result: n4Z40x_w2XONipedhUTbhpJkhSM- has been uploaded

==== Log checksum 4FE4F573FCDFFC4F7F49C04B258D33F2013C284ADC154C762A806ED6B6F6400D ====
Код: Выделить всё
AUDIOCHECKER v2.0 beta (build 457) - by Dester - opdester@freemail.hu
~~~~~~~~~~~~~~~~~~~~~~~~~~~~~~~~~~

Started at: суббота, 27. 12. 2014. - 13:47.44
1 file found

1 -===- C:\Users\GREH\Desktop\THE ЛЕНИНГРАД - ПЛЯЖ НАШ\THE ЛЕНИНГРАД - ПЛЯЖ НАШ.flac
  Extracted successfully
  Conclusion: this track is CDDA with probability 100%
  Tempfile successfully deleted.

Finished at: суббота, 27. 12. 2014. - 13:51.41 (operation time: 0:03.57)
Код: Выделить всё
[url=http://radikal.ru/fp/c899a6c60e9642aa92d20b98e7ac0a25][img]http://s020.radikal.ru/i706/1412/64/a9a745ccabe7t.jpg[/img][/url] [url=http://radikal.ru/fp/ed76d9905b77472a9a7503930e968bfe][img]http://s014.radikal.ru/i326/1412/f5/31d6d369ace6t.jpg[/img][/url] [url=http://radikal.ru/fp/6b73e03ddf73480590e9612591a611f4][img]http://s010.radikal.ru/i311/1412/36/0959b0779ad0t.jpg[/img][/url]
КУБКИ

СТАЖ

МЕДАЛИ
Награды:36

Лучший по количеству кубков (14) За отличные раздачи и качество (10) За отличные комментарии (5) Почётный форумчанин (3) Верный Сид (1)

Аватара пользователя
likko
Уважаемый Релизёр-Корсар
  • Торрент
Для скачивания торрента необходимо зарегистрироваться или войти на трекер.

Вернуться в Отечественный Рок (Lossless)



Uptime по данным Ping-Admin.Ru - сервиса мониторинга доступности сайтов
Рейтинг@Mail.ru