logo
Международный русскоязычный
торрент-трекер
Menu
"Бунт на корабле", за скачанные торрент-файлы дублоны не снимаются. Возможность оплачена пользователем filbi1976.
Doublon
Поделиться с друзьями: 
Голосуй за Корсар и получи 500 дублонов
Рейтинг торрент трекеров - UpTracker.ru

Ленинград - Хна (2011, Rock, FLAC)

Сообщение likko » 11 янв 2017, 10:01

Ленинград - Хна


Жанр: Rock
Страна-производитель диска: Россия
Год издания диска: 2011
Издатель (лейбл): Zenith Records
Номер по каталогу: ZEN 046
Страна: Россия
Аудио кодек: FLAC (*.flac)
Тип рипа: tracks+.cue
Битрейт аудио: lossless
Продолжительность: 39:13
Источник (релизер): оригинальный CD
Наличие сканов в содержимом раздачи: да
Треклист:
01 Сладкий сон
02 И больше никого
03 Прощай
04 Нет и еще раз нет
05 Автопилот
06 Осень - диско
07 Maybe
08 Песня
09 Надоел
10 Ф.З.
11 Миша
12 Твистосвист
13 Огонь и лед
14 К.Ф.П.Р.
15 Триумф
Код: Выделить всё
Exact Audio Copy V0.99 prebeta 5 from 4. May 2009

EAC extraction logfile from 22. April 2011, 16:29

Ленинград / Хна

Used drive  : _NEC    DVD_RW ND-3520A   Adapter: 0  ID: 1

Read mode               : Secure
Utilize accurate stream : Yes
Defeat audio cache      : Yes
Make use of C2 pointers : No

Read offset correction                      : 48
Overread into Lead-In and Lead-Out          : No
Fill up missing offset samples with silence : Yes
Delete leading and trailing silent blocks   : No
Null samples used in CRC calculations       : Yes
Used interface                              : Native Win32 interface for Win NT & 2000
Gap handling                                : Appended to previous track

Used output format              : User Defined Encoder
Selected bitrate                : 128 kBit/s
Quality                         : High
Add ID3 tag                     : No
Command line compressor         : C:\Program Files\Exact Audio Copy\Flac\flac.exe
Additional command line options : -8 -V -T "ARTIST=%a" -T "TITLE=%t" -T "ALBUM=%g" -T "DATE=%y" -T "TRACKNUMBER=%n" -T "GENRE=%m" -T "COMMENT=EAC FLAC -8" %s

TOC of the extracted CD

     Track |   Start  |  Length  | Start sector | End sector
    ---------------------------------------------------------
        1  |  0:00.00 |  2:05.61 |         0    |     9435
        2  |  2:05.61 |  2:53.73 |      9436    |    22483
        3  |  4:59.59 |  2:10.07 |     22484    |    32240
        4  |  7:09.66 |  2:50.09 |     32241    |    44999
        5  | 10:00.00 |  2:26.59 |     45000    |    56008
        6  | 12:26.59 |  3:21.28 |     56009    |    71111
        7  | 15:48.12 |  2:10.44 |     71112    |    80905
        8  | 17:58.56 |  2:16.11 |     80906    |    91116
        9  | 20:14.67 |  2:49.63 |     91117    |   103854
       10  | 23:04.55 |  3:02.28 |    103855    |   117532
       11  | 26:07.08 |  1:54.10 |    117533    |   126092
       12  | 28:01.18 |  2:15.57 |    126093    |   136274
       13  | 30:17.00 |  3:01.69 |    136275    |   149918
       14  | 33:18.69 |  2:59.14 |    149919    |   163357
       15  | 36:18.08 |  2:55.12 |    163358    |   176494

Track  1

     Filename D:\Ленинград - 2011 - Хна\01. Ленинград - Сладкий сон.wav

     Pre-gap length  0:00:02.00

     Peak level 100.0 %
     Track quality 100.0 %
     Test CRC 27FCF4AF
     Copy CRC 27FCF4AF
     Track not present in AccurateRip database
     Copy OK

Track  2

     Filename D:\Ленинград - 2011 - Хна\02. Ленинград - И больше никого.wav

     Peak level 100.0 %
     Track quality 100.0 %
     Test CRC 2A3A7EC0
     Copy CRC 2A3A7EC0
     Track not present in AccurateRip database
     Copy OK

Track  3

     Filename D:\Ленинград - 2011 - Хна\03. Ленинград - Прощай.wav

     Peak level 100.0 %
     Track quality 100.0 %
     Test CRC 40802748
     Copy CRC 40802748
     Track not present in AccurateRip database
     Copy OK

Track  4

     Filename D:\Ленинград - 2011 - Хна\04. Ленинград - Нет и еще раз нет.wav

     Peak level 100.0 %
     Track quality 100.0 %
     Test CRC 3B0AC3BB
     Copy CRC 3B0AC3BB
     Track not present in AccurateRip database
     Copy OK

Track  5

     Filename D:\Ленинград - 2011 - Хна\05. Ленинград - Автопилот.wav

     Peak level 100.0 %
     Track quality 99.9 %
     Test CRC 19B5481F
     Copy CRC 19B5481F
     Track not present in AccurateRip database
     Copy OK

Track  6

     Filename D:\Ленинград - 2011 - Хна\06. Ленинград - Осень - диско.wav

     Peak level 100.0 %
     Track quality 100.0 %
     Test CRC 21AD5123
     Copy CRC 21AD5123
     Track not present in AccurateRip database
     Copy OK

Track  7

     Filename D:\Ленинград - 2011 - Хна\07. Ленинград - Maybe.wav

     Peak level 100.0 %
     Track quality 100.0 %
     Test CRC 35F931A1
     Copy CRC 35F931A1
     Track not present in AccurateRip database
     Copy OK

Track  8

     Filename D:\Ленинград - 2011 - Хна\08. Ленинград - Песня.wav

     Peak level 100.0 %
     Track quality 99.9 %
     Test CRC 309FD50C
     Copy CRC 309FD50C
     Track not present in AccurateRip database
     Copy OK

Track  9

     Filename D:\Ленинград - 2011 - Хна\09. Ленинград - Надоел.wav

     Peak level 100.0 %
     Track quality 100.0 %
     Test CRC 4A05AACE
     Copy CRC 4A05AACE
     Track not present in AccurateRip database
     Copy OK

Track 10

     Filename D:\Ленинград - 2011 - Хна\10. Ленинград - Ф.З..wav

     Peak level 100.0 %
     Track quality 99.8 %
     Test CRC E3E74A2E
     Copy CRC E3E74A2E
     Track not present in AccurateRip database
     Copy OK

Track 11

     Filename D:\Ленинград - 2011 - Хна\11. Ленинград - Миша.wav

     Peak level 100.0 %
     Track quality 99.8 %
     Test CRC 8C59C4C9
     Copy CRC 8C59C4C9
     Track not present in AccurateRip database
     Copy OK

Track 12

     Filename D:\Ленинград - 2011 - Хна\12. Ленинград - Твистосвист.wav

     Peak level 100.0 %
     Track quality 100.0 %
     Test CRC 4A8DDFB3
     Copy CRC 4A8DDFB3
     Track not present in AccurateRip database
     Copy OK

Track 13

     Filename D:\Ленинград - 2011 - Хна\13. Ленинград - Огонь и лед.wav

     Peak level 100.0 %
     Track quality 100.0 %
     Test CRC 49169EA2
     Copy CRC 49169EA2
     Track not present in AccurateRip database
     Copy OK

Track 14

     Filename D:\Ленинград - 2011 - Хна\14. Ленинград - К.Ф.П.Р..wav

     Peak level 100.0 %
     Track quality 100.0 %
     Test CRC C509BB4E
     Copy CRC C509BB4E
     Track not present in AccurateRip database
     Copy OK

Track 15

     Filename D:\Ленинград - 2011 - Хна\15. Ленинград - Триумф.wav

     Peak level 98.6 %
     Track quality 100.0 %
     Test CRC 35433437
     Copy CRC 35433437
     Track not present in AccurateRip database
     Copy OK

None of the tracks are present in the AccurateRip database

No errors occurred

End of status report
Код: Выделить всё
REM GENRE Rock
REM DATE 2011
REM DISCID AD09310F
REM COMMENT "ExactAudioCopy v0.99pb5"
PERFORMER "Ленинград"
TITLE "Хна"
FILE "01. Ленинград - Сладкий сон.wav" WAVE
  TRACK 01 AUDIO
    TITLE "Сладкий сон"
    PERFORMER "Ленинград"
    INDEX 01 00:00:00
FILE "02. Ленинград - И больше никого.wav" WAVE
  TRACK 02 AUDIO
    TITLE "И больше никого"
    PERFORMER "Ленинград"
    INDEX 01 00:00:00
FILE "03. Ленинград - Прощай.wav" WAVE
  TRACK 03 AUDIO
    TITLE "Прощай"
    PERFORMER "Ленинград"
    INDEX 01 00:00:00
FILE "04. Ленинград - Нет и еще раз нет.wav" WAVE
  TRACK 04 AUDIO
    TITLE "Нет и еще раз нет"
    PERFORMER "Ленинград"
    INDEX 01 00:00:00
FILE "05. Ленинград - Автопилот.wav" WAVE
  TRACK 05 AUDIO
    TITLE "Автопилот"
    PERFORMER "Ленинград"
    INDEX 01 00:00:00
FILE "06. Ленинград - Осень - диско.wav" WAVE
  TRACK 06 AUDIO
    TITLE "Осень - диско"
    PERFORMER "Ленинград"
    INDEX 01 00:00:00
FILE "07. Ленинград - Maybe.wav" WAVE
  TRACK 07 AUDIO
    TITLE "Maybe"
    PERFORMER "Ленинград"
    INDEX 01 00:00:00
FILE "08. Ленинград - Песня.wav" WAVE
  TRACK 08 AUDIO
    TITLE "Песня"
    PERFORMER "Ленинград"
    INDEX 01 00:00:00
FILE "09. Ленинград - Надоел.wav" WAVE
  TRACK 09 AUDIO
    TITLE "Надоел"
    PERFORMER "Ленинград"
    INDEX 01 00:00:00
FILE "10. Ленинград - Ф.З..wav" WAVE
  TRACK 10 AUDIO
    TITLE "Ф.З."
    PERFORMER "Ленинград"
    INDEX 01 00:00:00
FILE "11. Ленинград - Миша.wav" WAVE
  TRACK 11 AUDIO
    TITLE "Миша"
    PERFORMER "Ленинград"
    INDEX 01 00:00:00
FILE "12. Ленинград - Твистосвист.wav" WAVE
  TRACK 12 AUDIO
    TITLE "Твистосвист"
    PERFORMER "Ленинград"
    INDEX 01 00:00:00
FILE "13. Ленинград - Огонь и лед.wav" WAVE
  TRACK 13 AUDIO
    TITLE "Огонь и лед"
    PERFORMER "Ленинград"
    INDEX 01 00:00:00
FILE "14. Ленинград - К.Ф.П.Р..wav" WAVE
  TRACK 14 AUDIO
    TITLE "К.Ф.П.Р."
    PERFORMER "Ленинград"
    INDEX 01 00:00:00
FILE "15. Ленинград - Триумф.wav" WAVE
  TRACK 15 AUDIO
    TITLE "Триумф"
    PERFORMER "Ленинград"
    INDEX 01 00:00:00
КУБКИ

СТАЖ

МЕДАЛИ
Награды:36

Лучший по количеству кубков (14) За отличные раздачи и качество (10) За отличные комментарии (5) Почётный форумчанин (3) Верный Сид (1)

Аватара пользователя
likko
Уважаемый Релизёр-Корсар
  • Торрент
Для скачивания торрента необходимо зарегистрироваться или войти на трекер.

Вернуться в Отечественный Рок (Lossless)



Uptime по данным Ping-Admin.Ru - сервиса мониторинга доступности сайтов
Рейтинг@Mail.ru