logo
Международный русскоязычный
торрент-трекер
Menu
Doublon
Поделиться с друзьями: 
Голосуй за Корсар и получи 500 дублонов
Рейтинг торрент трекеров - UpTracker.ru

ЛЕГО Фильм-2 / The Lego Movie 2: The Second Part (2019, мультфильм, мюзикл, фэнтези, комедия, приключения, семейный, полнометражный, UHD BDRemux 2160p) | iTunes

Сообщение kisa1980 » 26 апр 2019, 13:40

Название: ЛЕГО Фильм-2
Оригинальное название: The Lego Movie 2: The Second Part
Год выхода: 2019
Жанр: Мультфильм, мюзикл, фэнтези, комедия, приключения, семейный, полнометражный
Режиссер: Майк Митчелл
В ролях: Крис Прэтт, Элизабет Бэнкс, Уилл Арнетт, Тиффани Хэддиш, Стефани Беатриз, Элисон Бри, Ник Офферман, Чарли Дэй, Майя Рудольф, Уилл Феррелл

О фильме: Прошло пять лет с тех пор, когда все было прекрасно, и теперь герои столкнулись с новой невероятной угрозой — захватчиками LEGO DUPLO®, прибывшими из космоса и разрушающими всё на своем пути куда быстрее, чем герои могут построить вновь. В борьбе за восстановление гармонии во вселенной ЛЕГО Эммет, Люся, Бэтмен и их верные друзья отправятся в далекие неизведанные миры, в том числе необыкновенную галактику, где всегда царит музыка. Героям предстоит доказать свою смелость, находчивость и мастерство, а также понять, что каждый из них — особенный.



Страна: Дания, Норвегия, Австралия, США
Студия: Warner Bros., Warner Animation Group, LEGO System A/S
Продолжительность: 01:47:09
Перевод: Дублированный | iTunes

Качество: UHD BDRemux 2160p
Видео: 3840x2160 at 23.976 fps, MPEG-H HEVC HDR Video, 54700 kbps avg
Аудио 1: 48 kHz, AC3, 5.1, 384 Kbps | iTunes | RUS |
Аудио 2: 48 kHz, AC3, 2.0, 160 Kbps | iTunes | UKR |
Аудио 3: 48 kHz, TrueHD, 7.1, 3526 Kbps | Оригинал | ENG |
Аудио 4: 48 kHz, AC3, 5.1, 640 Kbps | Оригинал | ENG |
Субтитры: Русские (Forced, full), украинские (Forced), английские

Релиз от:

General
Unique ID : 254204762379797712001032336775667356230 (0xBF3E0E6F6611EAA1AAE94A3B54399246)
Complete name : D:Video111The.Lego.Movie.2.The.Second.Part.2019.BDREMUX.2160p.HDR.seleZen.mkv
Format : Matroska
Format version : Version 4
File size : 44.5 GiB
Duration : 1 h 47 min
Overall bit rate mode : Variable
Overall bit rate : 59.5 Mb/s
Movie name : The Lego Movie 2: The Second Part 4K 2019 from селезень
Encoded date : UTC 2019-04-26 10:23:38
Writing application : mkvmerge v32.0.0 ('Astral Progressions') 64-bit
Writing library : libebml v1.3.7 + libmatroska v1.5.0

Video
ID : 1
Format : HEVC
Format/Info : High Efficiency Video Coding
Format profile : Main 10@L5.1@High
HDR format : SMPTE ST 2086, HDR10 compatible
Codec ID : V_MPEGH/ISO/HEVC
Duration : 1 h 47 min
Bit rate : 54.7 Mb/s
Width : 3 840 pixels
Height : 2 160 pixels
Display aspect ratio : 16:9
Frame rate mode : Constant
Frame rate : 23.976 (24000/1001) FPS
Color space : YUV
Chroma subsampling : 4:2:0 (Type 2)
Bit depth : 10 bits
Bits/(Pixel*Frame) : 0.275
Stream size : 40.9 GiB (92%)
Writing library : ATEME Titan File 3.9.0 (4.9.0.0)
Language : English
Default : Yes
Forced : No
Color range : Limited
Color primaries : BT.2020
Transfer characteristics : PQ
Matrix coefficients : BT.2020 non-constant
Mastering display color pri : Display P3
Mastering display luminance : min: 0.0050 cd/m2, max: 4000 cd/m2
Maximum Content Light Level : 3848 cd/m2
Maximum Frame-Average Light : 370 cd/m2

Audio #1
ID : 2
Format : AC-3
Format/Info : Audio Coding 3
Commercial name : Dolby Digital
Codec ID : A_AC3
Duration : 1 h 47 min
Bit rate mode : Constant
Bit rate : 384 kb/s
Channel(s) : 6 channels
Channel layout : L R C LFE Ls Rs
Sampling rate : 48.0 kHz
Frame rate : 31.250 FPS (1536 SPF)
Bit depth : 16 bits
Compression mode : Lossy
Stream size : 294 MiB (1%)
Title : iTunes
Language : Russian
Service kind : Complete Main
Default : Yes
Forced : Yes

Audio #2
ID : 3
Format : AC-3
Format/Info : Audio Coding 3
Commercial name : Dolby Digital
Codec ID : A_AC3
Duration : 1 h 47 min
Bit rate mode : Constant
Bit rate : 160 kb/s
Channel(s) : 2 channels
Channel layout : L R
Sampling rate : 48.0 kHz
Frame rate : 31.250 FPS (1536 SPF)
Bit depth : 16 bits
Compression mode : Lossy
Stream size : 123 MiB (0%)
Title : iTunes
Language : Ukrainian
Service kind : Complete Main
Default : No
Forced : No

Audio #3
ID : 4
Format : MLP FBA 16-ch
Format/Info : Meridian Lossless Packing FBA with 16-channel presentation
Commercial name : Dolby TrueHD with Dolby Atmos
Codec ID : A_TRUEHD
Duration : 1 h 47 min
Bit rate mode : Variable
Bit rate : 3 526 kb/s
Maximum bit rate : 5 280 kb/s
Channel(s) : 8 channels
Channel layout : L R C LFE Ls Rs Lb Rb
Sampling rate : 48.0 kHz
Frame rate : 1 200.000 FPS (40 SPF)
Compression mode : Lossless
Stream size : 2.64 GiB (6%)
Title : Original
Language : English
Default : No
Forced : No
Number of dynamic objects : 15
Bed channel count : 1 channel
Bed channel configuration : LFE

Audio #4
ID : 5
Format : AC-3
Format/Info : Audio Coding 3
Commercial name : Dolby Digital
Codec ID : A_AC3
Duration : 1 h 47 min
Bit rate mode : Constant
Bit rate : 640 kb/s
Channel(s) : 6 channels
Channel layout : L R C LFE Ls Rs
Sampling rate : 48.0 kHz
Frame rate : 31.250 FPS (1536 SPF)
Bit depth : 16 bits
Compression mode : Lossy
Stream size : 491 MiB (1%)
Language : English
Service kind : Complete Main
Default : No
Forced : No

Text #1
ID : 6
Format : UTF-8
Codec ID : S_TEXT/UTF8
Codec ID/Info : UTF-8 Plain Text
Duration : 1 h 45 min
Bit rate : 5 b/s
Count of elements : 41
Stream size : 3.90 KiB (0%)
Title : Forced
Language : Russian
Default : Yes
Forced : Yes

Text #2
ID : 7
Format : UTF-8
Codec ID : S_TEXT/UTF8
Codec ID/Info : UTF-8 Plain Text
Duration : 1 h 46 min
Bit rate : 128 b/s
Count of elements : 1905
Stream size : 100 KiB (0%)
Title : Full
Language : Russian
Default : No
Forced : No

Text #3
ID : 8
Format : UTF-8
Codec ID : S_TEXT/UTF8
Codec ID/Info : UTF-8 Plain Text
Duration : 1 h 32 min
Bit rate : 5 b/s
Count of elements : 40
Stream size : 3.73 KiB (0%)
Title : Forced
Language : Ukrainian
Default : No
Forced : No

Text #4
ID : 9
Format : UTF-8
Codec ID : S_TEXT/UTF8
Codec ID/Info : UTF-8 Plain Text
Duration : 1 h 46 min
Bit rate : 90 b/s
Count of elements : 2152
Stream size : 70.2 KiB (0%)
Title : Full
Language : English
Default : No
Forced : No

Menu
00:00:00.000 : en:Chapter 01
00:04:15.881 : en:Chapter 02
00:12:35.046 : en:Chapter 03
00:15:09.951 : en:Chapter 04
00:21:57.733 : en:Chapter 05
00:29:50.330 : en:Chapter 06
00:36:22.680 : en:Chapter 07
00:44:47.977 : en:Chapter 08
00:50:50.506 : en:Chapter 09
00:57:05.255 : en:Chapter 10
01:01:07.163 : en:Chapter 11
01:09:48.351 : en:Chapter 12
01:17:31.939 : en:Chapter 13
01:21:58.122 : en:Chapter 14
01:26:49.538 : en:Chapter 15
01:34:06.266 : en:Chapter 16
01:38:30.571 : en:Chapter 17
КУБКИ

СТАЖ

МЕДАЛИ
Награды:86

За помощь проекту (9) Лучший по количеству кубков (3) За отличные раздачи и качество (29) За подробное оформление раздач (5) За отличные комментарии (8) Почётный форумчанин (6) Верный Сид (22) За участие в конкурсах/играх (2)

Аватара пользователя
Тортуга
kisa1980
Главный помощник Администратора-Корсар
  • Торрент
Для скачивания торрента необходимо зарегистрироваться или войти на трекер.

Вернуться в Мультфильмы (UHD 4K)



Uptime по данным Ping-Admin.Ru - сервиса мониторинга доступности сайтов
Рейтинг@Mail.ru Голосуйте за наш сайт в каталоге Rubo.Ru