logo
Международный русскоязычный
торрент-трекер
Menu
Поделиться с друзьями: 
Голосуй за Корсар и получи 500 дублонов
Рейтинг торрент трекеров - UpTracker.ru

Лёд 2 (2020, мелодрама, драма, спорт, WEB-DL 1080p) | iTunes

Сообщение al1ksandr » 04 апр 2020, 20:52

Название: Лёд 2
Год выпуска: 2020
Жанр: Мелодрама, драма, спорт
Режиссер: Жора Крыжовников
В ролях: Александр Петров, Аглая Тарасова, Мария Аронова, Юлия Хлынина, Надежда Михалкова, Сергей Кузнецов, Сергей Лавыгин, Виталия Корниенко, Вера Тарасова, Евгения Евстигнеева

О фильме: Что происходит в сказках после свадьбы принца и принцессы? Фигуристка Надя и хоккеист Саша поженились и теперь мечтают о ребенке. Правда, цена, которую им придется заплатить за эту мечту, будет невообразимо высока. Кажется, что после таких потрясений рассчитывать на счастливый конец уже невозможно. Но если вы так думаете, вы ничего не знаете о настоящих сказках.



Страна: Россия,
Студия: Телеканал «РОССИЯ 1», Art Pictures Studio
Продолжительность: 02:10:37
Перевод: Не требуется | iTunes

Качество: WEB-DL 1080p
Формат: Matroska
Видео: MPEG-4 AVC, 5119 Кбит/с, 1920x804
Аудио: Russian: 48 kHz, AC3, 6 ch, 384 Kbps
Субтитры: Нет

Релиз от:

Complete name: Led.2.2020.WEB-DL.1080p.ELEKTRI4KA.UNIONGANG.mkv
Format: Matroska
Format version: Version 4 / Version 2
File size: 5.02 GiB
Duration: 2 h 10 min
Overall bit rate: 5 498 kb/s
Movie name: ELEKTRI4KA.UNIONGANG
Encoded date: UTC 2020-04-23 22:44:43
Writing application: mkvmerge v8.3.0 ('Over the Horizon') 64bit
Writing library: libebml v1.3.1 + libmatroska v1.4.2

Video
ID: 1
Format: AVC
Format/Info: Advanced Video Codec
Format profile: High@L4
Format settings, CABAC: Yes
Format settings, Reference frames: 4 frames
Codec ID: V_MPEG4/ISO/AVC
Duration: 2 h 10 min
Bit rate: 5 119 kb/s
Width: 1 920 pixels
Height: 804 pixels
Display aspect ratio: 2.40:1
Frame rate mode: Constant
Frame rate: 24.000 FPS
Color space: YUV
Chroma subsampling: 4:2:0
Bit depth: 8 bits
Scan type: Progressive
Bits/(Pixel*Frame): 0.138
Stream size: 4.66 GiB (93%)
Title: ELEKTRI4KA.UNIONGANG
Writing library: x264 core 148
Encoding settings: cabac=1 / ref=3 / deblock=1:0:0 / analyse=0x3:0x113 / me=hex / subme=7 / psy=1 / psy_rd=1.00:0.00 / mixed_ref=1 / me_range=16 / chroma_me=1 / trellis=1 / 8x8dct=1 / cqm=0 / deadzone=21, 11 / fast_pskip=1 / chroma_qp_offset=-2 / threads=25 / lookahead_threads=4 / sliced_threads=0 / nr=0 / decimate=1 / interlaced=0 / bluray_compat=0 / constrained_intra=0 / bframes=6 / b_pyramid=2 / b_adapt=1 / b_bias=0 / direct=1 / weightb=1 / open_gop=0 / weightp=2 / keyint=48 / keyint_min=25 / scenecut=0 / intra_refresh=0 / rc_lookahead=40 / rc=2pass / mbtree=1 / bitrate=5120 / ratetol=1.0 / qcomp=0.60 / qpmin=0 / qpmax=69 / qpstep=4 / cplxblur=20.0 / qblur=0.5 / vbv_maxrate=7680 / vbv_bufsize=20480 / nal_hrd=none / filler=0 / ip_ratio=1.40 / aq=1:1.00
Default: Yes
Forced: No

Audio
ID: 2
Format: AC-3
Format/Info: Audio Coding 3
Mode extension: CM (complete main)
Format settings, Endianness: Big
Codec ID: A_AC3
Duration: 2 h 10 min
Bit rate mode: Constant
Bit rate: 384 kb/s
Channel(s): 6 channels
Channel positions: Front: L C R, Side: L R, LFE
Sampling rate: 48.0 kHz
Frame rate: 31.250 FPS (1536 spf)
Bit depth: 16 bits
Compression mode: Lossy
Stream size: 359 MiB (7%)
Language: Russian
Default: Yes
Forced: No

Menu
00:00:00.000: en:1
00:07:57.852: en:2
00:11:51.335: en:3
00:16:46.588: en:4
00:22:17.627: en:5
00:25:56.012: en:6
00:32:11.637: en:7
00:36:24.681: en:8
00:44:39.300: en:9
00:47:56.747: en:10
00:56:41.813: en:11
01:00:41.344: en:12
01:05:41.352: en:13
01:09:53.312: en:14
01:18:51.558: en:15
01:25:30.081: en:16
01:35:31.682: en:17
01:44:05.987: en:18
01:55:41.599: en:19
01:57:48.058: en:20
КУБКИ

СТАЖ

МЕДАЛИ
Награды:52

За активную помощь проекту (4) Лучший по количеству кубков (16) За отличные раздачи и качество (11) За подробное оформление раздач (1) За отличные комментарии (14) Почётный форумчанин (2) Верный Сид (1) За участие в конкурсах/играх (2)

Аватара пользователя
СССР
al1ksandr
Главный Модератор-Корсар
  • Торрент
Для скачивания торрента необходимо зарегистрироваться или войти на трекер.

Сообщение Lonrak1975 » 06 апр 2020, 20:43

Хороший фильм, сложный и глубокий, жизненный, тяжелый довольно...
Саундтреки цепляют крюками за душу, картинка отточена до каждого кадра- не ожидал,что так заснимут.
И если первая часть была сказкой,светлой и милой...То второй фильм режет прямо лезвием, тяжеловат, это уже взрослая сказка, а у взрослых сказки другие...В общем к просмотру рекомендую-можно скоротать вечерок.
За релиз большой :respect: уважаемому al1ksandr :hi: :pirates_:
КУБКИ

СТАЖ

МЕДАЛИ
Награды:34

За помощь проекту в 200 рублей (1) За помощь проекту в 300 рублей (2) Лучший по количеству кубков (4) За отличные комментарии (24) Почётный форумчанин (1) Верный Сид (2)

Аватара пользователя
СССР
Lonrak1975
Мини VIP-300


Вернуться в Наше современное кино (HD Video)



Uptime по данным Ping-Admin.Ru - сервиса мониторинга доступности сайтов
Рейтинг@Mail.ru