logo
Международный русскоязычный
торрент-трекер
Menu
Магазин-KorsaRDoublon
Поделиться с друзьями: 
Голосуй и получи дублоны
Рейтинг торрент трекеров - UpTracker.ru

Ларец Марии Медичи (1980, детектив, экранизация, HDTVRip-AVC)

Сообщение aleksan55 » 26 ноя 2016, 23:40

Год выпуска: 1980
Производство: СССР, "Мосфильм"
Жанр: детектив, экранизация
Продолжительность: 01:25:23
Субтитры: нет
Режиссёр: Рудольф Фрунтов

В ролях: Валерий Рыжаков, Клара Лучко, Эммануил Виторган, Эдда Урусова, Анатолий Егоров, Рубен Симонов (II), Всеволод Сафонов, Сергей Мартынов, Даниил Нетребин, Лев Поляков, Станислав Захаров, Надежда Хиль, Леонид Оболенский, Герасим Лисициан, Николай Ерофеев, Виктор Зозулин, Алла Балтер, Олег Чайка

Описание: Бизнесмен и антиквар Савиньи, приехавший в Ленинград, бесследно исчезает. Не сразу удается узнать, что совершено убийство... По ходу расследования, которое ведет инспектор милиции Люсин, приходится выяснить не только мотивы преступления, но и погрузиться в далекое прошлое, разгадать тайну старинного ларца. Фильм возвращает нас к событиям ХIII века, когда из города, осажденного крестоносцами, по приказу наставника альбигойцев епископа Бертрана были вывезены и спрятаны священные сокровища. Поиски этого клада на протяжении семи веков не раз становились причиной ожесточенной борьбы и преступлений




Качество: HDTVRip-AVC
Формат: MKV
Видео кодек: H.264
Аудио кодек: AC3
Видео: MPEG4 Video (H264), 1024x508, 24fps,2023 Kbps,bit/pixel 0.156
Аудио: AC3 48000Hz, stereo, 384 kbps,6 ch


Общее
Уникальный идентификатор : 249079839650026650326683648151540818441 (0xBB63083C753EF47BB38FA3B2BD896209)
Полное имя : H:\Ларец Марии Медичи\Ларец Марии Медичи_rip by_Aleksan55.mkv
Формат : Matroska
Версия формата : Version 2
Размер файла : 1,44 Гбайт
Продолжительность : 1 ч. 25 м.
Общий поток : 2409 Кбит/сек
Дата кодирования : UTC 2016-11-26 06:42:37
Программа кодирования : mkvmerge v7.8.0 ('River Man') 32bit built on Apr 3 2015 12:11:22
Библиотека кодирования : libebml v1.3.1 + libmatroska v1.4.2

Видео
Идентификатор : 1
Формат : AVC
Формат/Информация : Advanced Video Codec
Профиль формата : High@L3.1
Параметр CABAC формата : Да
Параметр ReFrames формата : 14 кадров
Идентификатор кодека : V_MPEG4/ISO/AVC
Продолжительность : 1 ч. 25 м.
Битрейт : 2023 Кбит/сек
Ширина : 1024 пикселя
Высота : 508 пикселей
Соотношение сторон : 2,016
Режим частоты кадров : Постоянный
Частота кадров : 25,000 кадров/сек
Цветовое пространство : YUV
Субдискретизация насыщенности : 4:2:0
Битовая глубина : 8 бит
Тип развёртки : Прогрессивная
Бит/(Пиксели*Кадры) : 0.156
Размер потока : 1,18 Гбайт (82%)
Библиотека кодирования : x264 core 148 r2638 7599210
Настройки программы : cabac=1 / ref=14 / deblock=1:-1:-1 / analyse=0x3:0x133 / me=umh / subme=10 / psy=1 / psy_rd=1.00:0.15 / mixed_ref=0 / me_range=48 / chroma_me=1 / trellis=2 / 8x8dct=1 / cqm=0 / deadzone=21,11 / fast_pskip=0 / chroma_qp_offset=-3 / threads=2 / lookahead_threads=3 / sliced_threads=0 / nr=0 / decimate=0 / interlaced=0 / bluray_compat=0 / constrained_intra=0 / bframes=14 / b_pyramid=2 / b_adapt=1 / b_bias=0 / direct=3 / weightb=1 / open_gop=0 / weightp=2 / keyint=250 / keyint_min=25 / scenecut=40 / intra_refresh=0 / rc_lookahead=70 / rc=2pass / mbtree=1 / bitrate=2023 / ratetol=1.0 / qcomp=0.80 / qpmin=0 / qpmax=40 / qpstep=4 / cplxblur=20.0 / qblur=0.5 / ip_ratio=1.40 / aq=1:1.20
Default : Да
Forced : Нет
Цветовой диапазон : Limited
Основные цвета : BT.709
Характеристики трансфера : BT.709
Коэффициенты матрицы : BT.709

Аудио
Идентификатор : 2
Формат : AC-3
Формат/Информация : Audio Coding 3
Расширение режима : CM (complete main)
Параметр Endianness формата : Big
Идентификатор кодека : A_AC3
Продолжительность : 1 ч. 25 м.
Вид битрейта : Постоянный
Битрейт : 384 Кбит/сек
Каналы : 6 каналов
Расположение каналов : Front: L C R, Side: L R, LFE
Частота : 48,0 КГц
Метод сжатия : С потерями
Размер потока : 235 Мбайт (16%)
Default : Да
Forced : Нет

Рекламы нет.
Аватара пользователя
aleksan55
Уважаемый Релизёр-Корсар
 
 

Награды: 11
За помощь проекту (1) Лучший по количеству кубков (4) За отличные раздачи (4) Верный Сид (2)
  • Торрент
Для скачивания торрента необходимо зарегистрироваться или войти на трекер.

Сообщение filbi1976 » 26 ноя 2016, 23:44

Хороший фильм.
Саша, спасибо. :hi:
Аватара пользователя
filbi1976
Предводитель-Корсар
 
 

Награды: 13
За отличные раздачи (10) Верный Сид (3)

Сообщение bagrad » 27 ноя 2016, 02:03

Спасибо большое aleksan55! Интересный фильм! :good:
Dum spíro, spéro!
Аватара пользователя
bagrad
Корсар-Вип
 
 

Награды: 10
За помощь проекту (1) Лучший по количеству кубков (4) За отличные комментарии (1) Верный Сид (4)

Сообщение kwazar312 » 27 ноя 2016, 11:17

Большое спасибо за фильм по роману Е.Парнова.Фильм очень хороший.
Аватара пользователя
kwazar312
Корсар-Вип
 
 

Награды: 9
За помощь проекту (1) Лучший по количеству кубков (1) За отличные комментарии (4) За участие в конкурсах (1) Верный Сид (2)

Сообщение кандыба » 09 янв 2017, 20:29

Отличный фильм. Спасибо.
Аватара пользователя
кандыба
Корсар
 
 



Вернуться в Кино времён СССР



мониторинг сайтов