logo
Международный русскоязычный
торрент-трекер
Menu

Doublon
Поделиться с друзьями: 
Голосуй за Корсар и получи 150 дублонов
Рейтинг торрент трекеров - UpTracker.ru

Ладони (1993, Документальный, DVDRip-AVC) - KORSAR

Сообщение filbi1976 » 15 апр 2018, 01:51

Ладони / Palms

Год выпуска: 1993
Страна: Россия
Жанр: Документальный
Продолжительность: 02:18:54
Перевод: Не требуется
Русские субтитры: нет
Режиссер: Артур Аристакисян

Описание: Женщина, «сорок лет» пролежавшая на земле; парень-инвалид, давший обет не сойти с места до прихода Царства Небесного; старьевщик, собирающий одежду мертвых; горбатая старуха, хранящая в коробе голову своего палача-любовника; старик, собирающий кучу мусора, чтобы она росла и росла до неба. Среди своих героев, кишиневских нищих, режиссер провел не один год, начав снимать ручной камерой еще до поступления во ВГИК.
Ладони" - первый полнометражный фильм Артура Аристакисяна. Фильм чёрно-белый, снятый на самую дешевую плёнку, бессюжетный, мистический, пугающий, фрейдистский, откровенный, разный! "Ладони" - это монолог отца, обращенный к его еще неродившемуся сыну. Отец делится с сыном самым главным из того, что успел понять: как спастись, спастись в библейском смысле. На экране проходят различные варианты спасения как зафиксированные документальной съемкой случаи духовного спасения конкретных людей. Это цепочка апокалипсических притч на документальном киноматериале, рассказанных самим автором. Притч о реальных кишиневских нищих (фильм снимался несколько лет). Но это не религиозные притчи, это притчи жизни, которой нет, притчи общества, которого нет, притчи души, которой нет. Текст в фильме звучит почти непрерывно, создавая словесную ткань фильма, вербальный аналог изобразительного ряда. Помимо текста, который произносит сам автор, в фильме звучит только музыкальная тема "День гнева" из Реквиема Дж.Верди. Великое произведение, для великого режиссёра, не могу сказать точно, писалась ли музыка для фильма или фильм снимался под музыку, но иногда возникают паузы. В эти моменты господствует чистая визуальность. Что там, в этих паузах? Человек культями обеих рук держит у рта папироску. Нищий на низкой самодельной тележке на подшипниках возвращается домой, с трудом справляется с дверью, открывая ее - и ему навстречу протягивает руки девочка, видно, его дочка. На болоте мальчик моет тарелку под струей воды из колонки, которая едва возвышается над болотом, и тарелка с трудом помещается в зазор между поверхностью грязной воды и краном колонки. Слепые нищие в дешевой забегаловке стоя едят на ощупь: фиксируют пальцем край тарелки, пробуют на вес стакан с компотом перед тем, как взять его, чтобы определить, пустой он или нет. Таких деталей в фильме множество. Их невозможно придумать. Их можно только подсмотреть и снять.
*Ника-1993. Лучший документальный фильм
*Берлинский кинофестиваль-1994. Премия им.Вольфганга Штодте.
*Карловы вары-1994. Приз экуменического жюри.

Кодек: х264
Качество: DVDRip-AVC
Видео: MPEG-4 AVC, 696x572@742x572, 25 fps, 4072 Кбит/с
Звук: AC3, 2 ch, 256 Кбит/с



  • x264 [info]: frame I:1005 Avg QP:18.77 size: 56376
  • x264 [info]: frame P:48757 Avg QP:20.80 size: 36191
  • x264 [info]: frame B:158648 Avg QP:23.69 size: 15492
Общее
Уникальный идентификатор : 253603192396722476670503769855304848925 (0xBECA32BEBC7C3A97B8BF6D92A536D61D)
Полное имя : D:\Ладони_1993-DVDRip-AVC_KORSAR.mkv
Формат : Matroska
Версия формата : Version 2
Размер файла : 4,24 Гбайт
Продолжительность : 2 ч. 18 м.
Общий поток : 4364 Кбит/сек
Дата кодирования : UTC 2018-04-14 23:53:26
Программа кодирования : mkvmerge v5.8.0 ('No Sleep / Pillow') built on Sep 2 2012 15:37:04
Библиотека кодирования : libebml v1.2.3 + libmatroska v1.3.0

Видео
Идентификатор : 1
Формат : AVC
Формат/Информация : Advanced Video Codec
Профиль формата : High@L4.1
Параметр CABAC формата : Да
Параметр RefFrames формата : 16 кадров
Идентификатор кодека : V_MPEG4/ISO/AVC
Продолжительность : 2 ч. 18 м.
Битрейт : 4021 Кбит/сек
Ширина : 696 пикселей
Высота : 572 пикселя
Соотношение сторон : 1,297
Соотношение сторон в оригинале : 1,298
Режим частоты кадров : Постоянный
Частота кадров : 25,000 кадров/сек
Цветовое пространство : YUV
Субдискретизация насыщенности : 4:2:0
Битовая глубина : 8 бит
Тип развёртки : Прогрессивная
Бит/(Пиксели*Кадры) : 0.404
Размер потока : 3,90 Гбайт (92%)
Библиотека кодирования : x264 core 148 r2744kMod b97ae06
Настройки программы : cabac=1 / ref=16 / deblock=1:-2:-1 / analyse=0x3:0x133 / me=umh / subme=10 / psy=1 / fade_compensate=0.00 / psy_rd=1.05:0.10 / mixed_ref=1 / me_range=32 / chroma_me=1 / trellis=2 / 8x8dct=1 / cqm=0 / deadzone=21,11 / fast_pskip=1 / chroma_qp_offset=-3 / threads=12 / lookahead_threads=3 / sliced_threads=0 / nr=0 / decimate=1 / interlaced=0 / bluray_compat=0 / constrained_intra=0 / bframes=13 / b_pyramid=2 / b_adapt=2 / b_bias=0 / direct=1 / weightb=1 / open_gop=0 / weightp=2 / keyint=250 / keyint_min=25 / scenecut=40 / intra_refresh=0 / rc=crf / mbtree=0 / crf=17.7000 / qcomp=0.63 / qpmin=0 / qpmax=39 / qpstep=4 / ip_ratio=1.40 / pb_ratio=1.30 / aq=1:1.00
Язык : English
Default : Да
Forced : Нет
Цветовой диапазон : Limited
Основные цвета : BT.601 PAL
Характеристики трансфера : BT.470 System B, BT.470 System G
Коэффициенты матрицы : BT.601

Аудио
Идентификатор : 2
Формат : AC-3
Формат/Информация : Audio Coding 3
Параметр Endianness формата : Big
Идентификатор кодека : A_AC3
Продолжительность : 2 ч. 18 м.
Вид битрейта : Постоянный
Битрейт : 256 Кбит/сек
Каналы : 2 канала
Расположение каналов : Front: L R
Частота : 48,0 КГц
Частота кадров : 31,250 кадров/сек (1536 SPF)
Битовая глубина : 16 бит
Метод сжатия : С потерями
Размер потока : 254 Мбайт (6%)
Язык : Russian
ServiceKind/String : Complete Main
Default : Да
Forced : Нет

Аватара пользователя
filbi1976
Администратор-Корсар
 
 

Награды: 55
За помощь проекту (1) За отличные раздачи и качество (40) Верный Сид (11) За участие в конкурсах/играх (1)
Раздачи группы KORSAR разрешено перезаливать спустя сутки после публикации
  • Торрент
Для скачивания торрента необходимо зарегистрироваться или войти на трекер.

Сообщение hodigor » 15 апр 2018, 04:16

Дорогой filbi1976, благодарю Вас за отличный жизненный фильм. С уважением hodigor.
Аватара пользователя
hodigor
Заслуженный Корсар-Вип
 
 

Награды: 11
За помощь проекту (5) За отличные комментарии (4) Верный Сид (2)

Сообщение verybigpapa » 15 апр 2018, 08:37

Уважаемый filbi1976, большое спасибо. :hi: :respect:
Улыбайтесь, господа! Улыбайтесь!
Аватара пользователя
verybigpapa
Заслуженный Корсар-Вип
 
 

Награды: 35
За помощь проекту (13) Лучший по количеству кубков (9) За отличные комментарии (5) Верный Сид (8)

Сообщение dzalaev » 15 апр 2018, 09:17

Сергей, большая Вам благодарность за выполненный заказ! Великолепный рип позабытого, неудобного, но прекрасного и нужного современному обществу фильма... :good: :10 balov: :hi:
Аватара пользователя
dzalaev
Опытный Корсар
 
 

Награды: 8
За помощь проекту (2) За отличные комментарии (4) Верный Сид (2)

Сообщение kwazar312 » 15 апр 2018, 09:25

Уважаемый filbi1976,большое спасибо за фильм.Не смотрел,даже не слышал об этом фильме,но ,судя по описанию,фильм очень страшный обо всех наших неприглядных сторонах жизни,даже не верится,что такое может быть.
Скачаю,посмотрю.
Удачи ВАМ!
Аватара пользователя
kwazar312
Заслуженный Корсар-Вип
 
 

Награды: 59
За помощь проекту (6) Лучший по количеству кубков (15) За отличные комментарии (9) Верный Сид (24) За участие в конкурсах/играх (5)


Вернуться в Познавательные фильмы



Uptime по данным Ping-Admin.Ru - сервиса мониторинга доступности сайтов
Рейтинг@Mail.ru