logo
Международный русскоязычный
торрент-трекер
Menu

Doublon
Поделиться с друзьями: 
Голосуй за Корсар и получи 400 дублонов
Рейтинг торрент трекеров - UpTracker.ru

Квартирка Джо / Joe's Apartment (1996, фантастика, фэнтези, комедия, DVDRip-AVC) - KORSAR

Сообщение MZMA » 14 ноя 2016, 07:34

Название: Квартирка Джо
Оригинальное название: Joe's Apartment
Год выпуска: 1996
Выпущено: США, Warner Bros. Pictures
Жанр: Фантастика, фэнтези, комедия
Продолжительность: 01:19:55
Перевод: Профессиональный многоголосый, авторский одноголосый
Режиссер: Джон Пейсон
В ролях: Джерри О`Коннелл, Меган Уорд, Билли Уэст, Реджинальд Хадлин, Джим Тернер, Сандра Пепа Дентон, Роберт Вон, Дон Хо, Джим Стерлинг, Шик Махмуд-Бей

О фильме: Джо Гротовски, молодой человек прибывает в Нью-Йорк и поселяется в доме, предназначенном на снос. Этот дом — пристанище нищих и подозрительных типов и, главное, — тараканов. Тараканы, выступающие в картине крупным планом, черные и рыжие, — они могут говорить, петь, танцевать и многое другое. И получается, что именно тараканы становятся подлинными хозяевами квартиры полюбившегося им Джо, равно как и судьбы самого молодого человека и его девушки.



Качество: DVDRip-AVC
Видео: MPEG-4 AVC, 2539 Кбит/с, 710x480@710x540, 23.976 Кадр/с
Аудио 1 Русский: AC3, 2 канала, 192 Кбит/сек - MVO, Варус видео
Аудио 2 Русский: AC3, 2 канала, 192 Кбит/сек - MVO, Первый канал
Аудио 3 Русский: AC3, 2 канала, 192 Кбит/сек - AVO, П. Санаев
Аудио 4 Русский: AC3, 2 канала, 192 Кбит/сек - AVO, С. Визгунов
Аудио 5 Английский: AC3, 2 канала, 192 Кбит/сек - Оригинал
Субтитры: Нет
Навигация по главам: есть



Общее
Уникальный идентификатор : 251532664276886249833305771796510063147 (0xBD3B6DD3BEF1D47F845D9300BD54BA2B)
Полное имя : Квартирка.Джо.1996.DVDRip-AVC.KORSAR.mkv
Формат : Matroska
Версия формата : Version 2
Размер файла : 1,95 Гбайт
Продолжительность : 1 ч. 19 м.
Общий поток : 3502 Кбит/сек
Дата кодирования : UTC 2018-07-11 18:59:31
Программа кодирования : mkvmerge v5.8.0 ('No Sleep / Pillow') built on Sep 2 2012 15:37:04
Библиотека кодирования : libebml v1.2.3 + libmatroska v1.3.0

Видео
Идентификатор : 1
Формат : AVC
Формат/Информация : Advanced Video Codec
Профиль формата : High@L4.1
Параметр CABAC формата : Да
Параметр RefFrames формата : 16 кадров
Идентификатор кодека : V_MPEG4/ISO/AVC
Продолжительность : 1 ч. 19 м.
Битрейт : 2539 Кбит/сек
Ширина : 710 пикселей
Высота : 480 пикселей
Соотношение сторон : 4:3
Режим частоты кадров : Постоянный
Частота кадров : 23,976 (24000/1001) кадра/сек
Цветовое пространство : YUV
Субдискретизация насыщенности : 4:2:0
Битовая глубина : 8 бит
Тип развёртки : Прогрессивная
Бит/(Пиксели*Кадры) : 0.311
Размер потока : 1,38 Гбайт (71%)
Заголовок : Квартирка.Джо.1996.DVDRip-AVC.KORSAR
Библиотека кодирования : x264 core 148 r2721kMod 72d53ab
Настройки программы : cabac=1 / ref=16 / deblock=1:-3:-3 / analyse=0x3:0x113 / me=umh / subme=11 / psy=1 / fade_compensate=0.00 / psy_rd=1.00:0.00 / mixed_ref=1 / me_range=32 / chroma_me=1 / trellis=2 / 8x8dct=1 / cqm=0 / deadzone=21,11 / fast_pskip=0 / chroma_qp_offset=-2 / threads=6 / lookahead_threads=1 / sliced_threads=0 / nr=0 / decimate=0 / interlaced=0 / bluray_compat=0 / constrained_intra=0 / fgo=0 / bframes=16 / b_pyramid=2 / b_adapt=2 / b_bias=0 / direct=3 / weightb=1 / open_gop=0 / weightp=2 / keyint=250 / keyint_min=23 / scenecut=40 / intra_refresh=0 / rc_lookahead=60 / rc=2pass / mbtree=1 / bitrate=2539 / ratetol=1.0 / qcomp=0.60 / qpmin=0 / qpmax=69 / qpstep=4 / cplxblur=20.0 / qblur=0.5 / vbv_maxrate=50000 / vbv_bufsize=62500 / nal_hrd=none / filler=0 / ip_ratio=1.40 / aq=1:1.00
Язык : English
Default : Нет
Forced : Нет

Аудио #1
Идентификатор : 2
Формат : AC-3
Формат/Информация : Audio Coding 3
Параметр Endianness формата : Big
Идентификатор кодека : A_AC3
Продолжительность : 1 ч. 19 м.
Вид битрейта : Постоянный
Битрейт : 192 Кбит/сек
Каналы : 2 канала
Расположение каналов : Front: L R
Частота : 48,0 КГц
Частота кадров : 31,250 кадров/сек (1536 SPF)
Битовая глубина : 16 бит
Метод сжатия : С потерями
Размер потока : 110 Мбайт (5%)
Заголовок : MVO, Варус видео
Язык : Russian
Default : Да
Forced : Нет

Аудио #2
Идентификатор : 3
Формат : AC-3
Формат/Информация : Audio Coding 3
Параметр Endianness формата : Big
Идентификатор кодека : A_AC3
Продолжительность : 1 ч. 19 м.
Вид битрейта : Постоянный
Битрейт : 192 Кбит/сек
Каналы : 2 канала
Расположение каналов : Front: L R
Частота : 48,0 КГц
Частота кадров : 31,250 кадров/сек (1536 SPF)
Битовая глубина : 16 бит
Метод сжатия : С потерями
Размер потока : 110 Мбайт (5%)
Заголовок : MVO, Первый канал
Язык : Russian
Default : Нет
Forced : Нет

Аудио #3
Идентификатор : 4
Формат : AC-3
Формат/Информация : Audio Coding 3
Параметр Endianness формата : Big
Идентификатор кодека : A_AC3
Продолжительность : 1 ч. 19 м.
Вид битрейта : Постоянный
Битрейт : 192 Кбит/сек
Каналы : 2 канала
Расположение каналов : Front: L R
Частота : 48,0 КГц
Частота кадров : 31,250 кадров/сек (1536 SPF)
Битовая глубина : 16 бит
Метод сжатия : С потерями
Размер потока : 110 Мбайт (5%)
Заголовок : AVO, П. Санаев
Язык : Russian
Default : Нет
Forced : Нет

Аудио #4
Идентификатор : 5
Формат : AC-3
Формат/Информация : Audio Coding 3
Параметр Endianness формата : Big
Идентификатор кодека : A_AC3
Продолжительность : 1 ч. 19 м.
Вид битрейта : Постоянный
Битрейт : 192 Кбит/сек
Каналы : 2 канала
Расположение каналов : Front: L R
Частота : 48,0 КГц
Частота кадров : 31,250 кадров/сек (1536 SPF)
Битовая глубина : 16 бит
Метод сжатия : С потерями
Размер потока : 110 Мбайт (5%)
Заголовок : AVO, С. Визгунов
Язык : Russian
Default : Нет
Forced : Нет

Аудио #5
Идентификатор : 6
Формат : AC-3
Формат/Информация : Audio Coding 3
Режим : Dolby Digital
Параметр Endianness формата : Big
Идентификатор кодека : A_AC3
Продолжительность : 1 ч. 19 м.
Вид битрейта : Постоянный
Битрейт : 192 Кбит/сек
Каналы : 2 канала
Расположение каналов : Front: L R
Частота : 48,0 КГц
Частота кадров : 31,250 кадров/сек (1536 SPF)
Битовая глубина : 16 бит
Метод сжатия : С потерями
Размер потока : 110 Мбайт (5%)
Заголовок : Оригинал
Язык : English
Default : Нет
Forced : Нет

Меню
00:00:00.000 : en:Chapter 1
00:02:09.534 : en:Chapter 2
00:03:15.135 : en:Chapter 3
00:05:56.435 : en:Chapter 4
00:11:37.535 : en:Chapter 5
00:16:56.136 : en:Chapter 6
00:21:13.970 : en:Chapter 7
00:22:56.970 : en:Chapter 8
00:26:23.304 : en:Chapter 9
00:29:22.638 : en:Chapter 10
00:32:00.305 : en:Chapter 11
00:37:07.372 : en:Chapter 12
00:39:49.639 : en:Chapter 13
00:45:36.406 : en:Chapter 14
00:50:05.107 : en:Chapter 15
00:52:58.808 : en:Chapter 16
00:56:20.108 : en:Chapter 17
00:58:18.809 : en:Chapter 18
01:03:41.710 : en:Chapter 19
01:06:40.444 : en:Chapter 20
01:08:15.644 : en:Chapter 21
01:11:12.378 : en:Chapter 22
01:15:35.812 : en:Chapter 23
01:16:02.713 : en:Chapter 24

formally -за исходник DVD-5

Версия с полной, необрезанной картинкой (4:3).
До исходника этого видео была версия 16:9, где кадр был обрезан сверху и снизу.
КУБКИ

СТАЖ

МЕДАЛИ
Награды:78

За помощь проекту (3) Лучший по количеству кубков (6) За отличные раздачи и качество (44) За подробное оформление раздач (11) Верный Сид (12)

Аватара пользователя
СССР
MZMA
Главный Модератор-Корсар
Раздачи группы KORSAR разрешено перезаливать спустя сутки после публикации
  • Торрент
Для скачивания торрента необходимо зарегистрироваться или войти на трекер.

Сообщение Elpaso » 23 июл 2018, 05:19

Вот уж, воистину, у каждого свои "тараканы"! Всё было, простые и мультяшные коты, щенята, поросёнок Бэйб и даже Джессика Рэббит... А вот немудрячих Нью Йоркских тараканов всё как-то стороной обходили. А здря! Да и куда ж без непризнанного художника с простой американской фамилией Гов... Там вам не здесь! Будь проще и дружелюбнее и тараканы к тебе потянутся...
КУБКИ

СТАЖ

МЕДАЛИ
Награды:3

За отличные комментарии (2) Верный Сид (1)

Аватара пользователя
United States of America
Elpaso
Уважаемый Корсар


Вернуться в Зарубежное кино (1991-2000)



Uptime по данным Ping-Admin.Ru - сервиса мониторинга доступности сайтов
Рейтинг@Mail.ru Голосуйте за наш сайт в каталоге Rubo.Ru