logo
Международный русскоязычный
торрент-трекер
Menu

Doublon
Поделиться с друзьями: 
Голосуй за Корсар и получи 400 дублонов
Рейтинг торрент трекеров - UpTracker.ru

Курьер (1986, драма, мелодрама, комедия, BDRip 720p)

Сообщение Gogen » 29 окт 2016, 02:39

Курьер


Год выпуска: 1986
Страна: СССР
Жанры: драма, мелодрама, комедия
Продолжительность: 01:27:20
Cубтитры: нет
Навигация по главам: есть
Режиссер: Карен Шахназаров
Сценарий: Александр Бородянский, Карен Шахназаров
В ролях: Федор Дунаевский, Анастасия Немоляева, Олег Басилашвили, Инна Чурикова, Светлана Крючкова, Александр Панкратов-Черный, Владимир Меньшов, Алевтина Евдокимова, Евдокия Урусова, Владимир Смирнов
Описание: Выпускник школы Иван, дожидаясь призыва в армию, работает курьером в редакции. Окружающие его солидные взрослые люди с трудом приспосабливаются к удивительной способности этого парня любое событие превратить в невероятное происшествие - порой уморительно веселое, а, подчас, и непоправимо грустное...
Доп. информация: Полная реставрация изображения и звука. Исходные киноматериалы подготовлены Госфильмофондом России. Покадровая цифровая реставрация изображения, ремастеринг звука и авторинг проведены объединением «Крупный план».
Релиз от by Skazhutin


Качество: BDRip
Формат: MKV
Видео кодек: x264
Аудио кодек: DTS
Видео: ~ 5 623 Kbps, 1280x544, 23.976 fps
Аудио
: DTS, ~1 509 Kbps, 48KHz, 6ch
    Лучший фильм по опросу журнала «Советский экран» в 1988 году.
    Фильм занял 6-ое место в списке лидеров проката в 1987 году.
    У российской рок-группы «Девять» есть песня «Поколение», в которой есть строчка: «Мы хотим знать, в чьи руки попадет возведенное нами здание» (с концертного альбома «Талифа куми»).
  • Федора Дунаевского на пробы привела его бывшая одноклассница Анастасия Немоляева.
General
Unique ID : 197747958608026789097405169213640922352 (0x94C4DF1A21525C7CAF83010D3701D4F0)
Complete name : D:\Фильмы\Наши\Kuryer.1986.720.BluRay.Rus-Skazhutin.mkv
Format : Matroska
Format version : Version 2
File size : 4.37 GiB
Duration : 1h 28mn
Overall bit rate : 7 053 Kbps
Movie name : Курьер (1986) BDRip by Skazhutin
Encoded date : UTC 2011-07-27 12:17:59
Writing application : mkvmerge v4.9.1 ('Ich will') built on Jul 11 2011 23:53:15
Writing library : libebml v1.2.1 + libmatroska v1.1.1
Attachment : Yes / Yes

Video
ID : 1
Format : AVC
Format/Info : Advanced Video Codec
Format profile : High@L4.1
Format settings, CABAC : Yes
Format settings, ReFrames : 11 frames
Codec ID : V_MPEG4/ISO/AVC
Duration : 1h 28mn
Bit rate : 5 626 Kbps
Width : 1 280 pixels
Height : 544 pixels
Display aspect ratio : 2.35:1
Frame rate mode : Constant
Frame rate : 23.976 fps
Color space : YUV
Chroma subsampling : 4:2:0
Bit depth : 8 bits
Scan type : Progressive
Bits/(Pixel*Frame) : 0.337
Stream size : 3.35 GiB (77%)
Writing library : x264 core 116 r2037 f8ebd4a
Encoding settings : cabac=1 / ref=11 / deblock=1:-3:-3 / analyse=0x3:0x113 / me=umh / subme=11 / psy=1 / psy_rd=1.00:0.00 / mixed_ref=1 / me_range=24 / chroma_me=1 / trellis=2 / 8x8dct=1 / cqm=0 / deadzone=21,11 / fast_pskip=0 / chroma_qp_offset=-2 / threads=6 / sliced_threads=0 / nr=0 / decimate=0 / interlaced=0 / bluray_compat=0 / constrained_intra=0 / bframes=6 / b_pyramid=2 / b_adapt=2 / b_bias=0 / direct=3 / weightb=1 / open_gop=0 / weightp=2 / keyint=250 / keyint_min=23 / scenecut=40 / intra_refresh=0 / rc_lookahead=60 / rc=2pass / mbtree=0 / bitrate=5626 / ratetol=1.0 / qcomp=0.65 / qpmin=0 / qpmax=69 / qpstep=4 / cplxblur=20.0 / qblur=0.5 / vbv_maxrate=50000 / vbv_bufsize=62500 / nal_hrd=none / ip_ratio=1.40 / pb_ratio=1.30 / aq=1:1.00
Language : Russian
Default : Yes
Forced : No
Color primaries : BT.709
Transfer characteristics : BT.709
Matrix coefficients : BT.709

Audio
ID : 2
Format : DTS
Format/Info : Digital Theater Systems
Mode : 16
Format settings, Endianness : Big
Codec ID : A_DTS
Duration : 1h 28mn
Bit rate mode : Constant
Bit rate : 1 509 Kbps
Channel(s) : 6 channels
Channel positions : Front: L C R, Side: L R, LFE
Sampling rate : 48.0 KHz
Bit depth : 24 bits
Compression mode : Lossy
Stream size : 957 MiB (21%)
Title : DTS 5.1 @ 1509 kbps
Language : Russian
Default : Yes
Forced : No

Menu
00:00:00.000 : en:Chapter 1
00:05:20.945 : en:Chapter 2
00:10:48.689 : en:Chapter 3
00:15:41.732 : en:Chapter 4
00:21:13.397 : en:Chapter 5
00:26:12.737 : en:Chapter 6
00:34:03.583 : en:Chapter 7
00:37:30.873 : en:Chapter 8
00:50:22.269 : en:Chapter 9
00:58:09.486 : en:Chapter 10
01:08:25.226 : en:Chapter 11
01:20:18.188 : en:Chapter 12
Аватара пользователя
Gogen
Заслуженный Релизёр-Корсар
 
 

Награды: 41
Лучший по количеству кубков (14) За отличные раздачи и качество (20) За подробное оформление раздач (1) Верный Сид (2)
  • Торрент
Для скачивания торрента необходимо зарегистрироваться или войти на трекер.

Сообщение kwazar312 » 17 янв 2017, 15:35

Ошеломляющий актерский состав и полная реставрация-прекрасный фильм,который вызывает интерес.Огромное спасибо за раздачу.
Аватара пользователя
kwazar312
Заслуженный Корсар-Вип
 
 

Награды: 63
За помощь проекту (7) Лучший по количеству кубков (16) За отличные комментарии (10) Верный Сид (25) За участие в конкурсах/играх (5)

Сообщение dimas » 10 окт 2018, 20:11

:senks2: :senks2: :senks2:
Аватара пользователя
dimas
Опытный Корсар
 
 



Вернуться в Кино времён СССР (HD Video)



Uptime по данным Ping-Admin.Ru - сервиса мониторинга доступности сайтов
Рейтинг@Mail.ru Голосуйте за наш сайт в каталоге Rubo.Ru
cron