logo
Международный русскоязычный
торрент-трекер
Menu
Поделиться с друзьями: 
Голосуй за Корсар и получи 500 дублонов
Рейтинг торрент трекеров - UpTracker.ru

Кухня. Последняя битва (2017, комедия, BDRip 720p) | Лицензия

Сообщение Gogen » 17 июн 2017, 05:07

Название: Кухня. Последняя битва
Год выпуска: 2017
Страна: Россия
Жанр: комедия
Перевод: Не требуется [Русский] (Лицензия)
Продолжительность: 01:54:27
Режиссер: Антон Федотов

В ролях: Дмитрий Назаров (Виктор Баринов), Дмитрий Нагиев (Дмитрий Нагиев), Сергей Лавыгин (Сеня), Олег Табаков, Анфиса Черных (Анна, повар сборной Франции), Кирилл Ковбас (Иван, сын шефа Баринова), Сергей Епишев, Михаил Тарабукин, Никита Тарасов, Михаил Башкатов, Марина Могилевская, Валерия Федорович

Описание: Раньше Ивана интересовали только шифровальные коды и хакерские программы, но всё меняется, когда он встречает красотку-француженку Анну со взрывным характером и русскими корнями. Оба летят в Сочи, чтобы принять участие в Чемпионате мира среди поваров: она выступает за Францию, а он - за Россию. Но Ивану ещё нужно разобраться в отношениях с недавно возникшим в его жизни папой - знаменитым шеф-поваром Виктором Бариновым, заслужить доверие его кулинарной суперкоманды, избежать тюрьмы за взлом сайта Минобороны и... помочь телеведущему Дмитрию Нагиеву сбежать из горного села в Абхазии, где его заставляют жениться.

Рейтинг:


Качество: BDRip 720p
Формат: MKV
Видео: AVC, 1280x536 (2.40:1), 6687 kbps, 24 fps, 0,406 bpp
Аудио: русский / DTS / 5.1 / 48 kHz / 1509 kbps / 24 bit
Навигация по главам: есть


Релиз от:



x264 [info]: frame I:2035 Avg QP:14.03 size:132125
x264 [info]: frame P:43442 Avg QP:16.41 size: 58710
x264 [info]: frame B:119334 Avg QP:17.84 size: 24434

General
Unique ID : 201380224065524147729541494062266434646 (0x97806B9D995A3ACD9A2A0D6E0303C456)
Complete name : D:downloadKuhnya.Poslednyaya.bitva.2017.BDRip 720p by schultz R.G.Resident.mkv
Format : Matroska
Format version : Version 4 / Version 2
File size : 6.55 GiB
Duration : 1 h 54 min
Overall bit rate : 8 193 kb/s
Encoded date : UTC 2017-06-16 21:03:33
Writing application : mkvmerge v8.9.0 ('Father Daughter') 64bit
Writing library : libebml v1.3.3 + libmatroska v1.4.4

Video
ID : 1
Format : AVC
Format/Info : Advanced Video Codec
Format profile : High@L4.1
Format settings, CABAC : Yes
Format settings, ReFrames : 11 frames
Codec ID : V_MPEG4/ISO/AVC
Duration : 1 h 54 min
Bit rate : 6 687 kb/s
Width : 1 280 pixels
Height : 536 pixels
Display aspect ratio : 2.40:1
Frame rate mode : Constant
Frame rate : 24.000 FPS
Color space : YUV
Chroma subsampling : 4:2:0
Bit depth : 8 bits
Scan type : Progressive
Bits/(Pixel*Frame) : 0.406
Stream size : 5.34 GiB (82%)
Writing library : x264 core 146 r2538 121396c
Encoding settings : cabac=1 / ref=11 / deblock=1:-3:-3 / analyse=0x3:0x113 / me=umh / subme=11 / psy=1 / psy_rd=1.00:0.15 / mixed_ref=1 / me_range=48 / chroma_me=1 / trellis=2 / 8x8dct=1 / cqm=0 / deadzone=21,11 / fast_pskip=0 / chroma_qp_offset=-3 / threads=12 / lookahead_threads=3 / sliced_threads=0 / nr=0 / decimate=0 / interlaced=0 / bluray_compat=0 / constrained_intra=0 / bframes=10 / b_pyramid=2 / b_adapt=2 / b_bias=0 / direct=3 / weightb=1 / open_gop=0 / weightp=2 / keyint=240 / keyint_min=24 / scenecut=40 / intra_refresh=0 / rc_lookahead=40 / rc=2pass / mbtree=0 / bitrate=6687 / ratetol=1.0 / qcomp=0.60 / qpmin=0 / qpmax=69 / qpstep=4 / cplxblur=20.0 / qblur=0.5 / vbv_maxrate=50000 / vbv_bufsize=62500 / nal_hrd=none / filler=0 / ip_ratio=1.40 / pb_ratio=1.30 / aq=1:1.00
Language : English
Default : Yes
Forced : No
Color range : Limited
Color primaries : BT.709
Transfer characteristics : BT.709
Matrix coefficients : BT.709

Audio
ID : 2
Format : DTS
Format/Info : Digital Theater Systems
Mode : 16
Format settings, Endianness : Big
Codec ID : A_DTS
Duration : 1 h 54 min
Bit rate mode : Constant
Bit rate : 1 509 kb/s
Channel(s) : 6 channels
Channel positions : Front: L C R, Side: L R, LFE
Sampling rate : 48.0 kHz
Frame rate : 93.750 FPS (512 spf)
Bit depth : 24 bits
Compression mode : Lossy
Stream size : 1.21 GiB (18%)
Language : Russian
Default : Yes
Forced : No

Menu
00:00:00.000 : en:Chapter 1
00:00:39.208 : en:Chapter 2
00:10:56.000 : en:Chapter 3
00:24:09.000 : en:Chapter 4
00:36:06.833 : en:Chapter 5
00:48:49.625 : en:Chapter 6
01:02:26.625 : en:Chapter 7
01:20:13.333 : en:Chapter 8
01:33:18.125 : en:Chapter 9


КУБКИ

СТАЖ

МЕДАЛИ
Награды:67

Лучший по количеству кубков (14) За отличные раздачи и качество (36) За подробное оформление раздач (2) За отличные комментарии (7) Почётный форумчанин (2) Верный Сид (2)

Аватара пользователя
Russia
Gogen
Заслуженный Релизёр-Корсар
  • Торрент
Для скачивания торрента необходимо зарегистрироваться или войти на трекер.

Вернуться в Наше современное кино (HD Video)



Uptime по данным Ping-Admin.Ru - сервиса мониторинга доступности сайтов
Рейтинг@Mail.ru