logo
Международный русскоязычный
торрент-трекер
Menu
Doublon
Поделиться с друзьями: 
Голосуй за Корсар и получи 500 дублонов
Рейтинг торрент трекеров - UpTracker.ru

Кто видел ее смерть? / Who Saw Her Die? / Chi l'ha vista morire? (1972, детектив, триллер, BDRemux 1080р)

Сообщение al1ksandr » 30 окт 2019, 21:02

Название: Кто видел ее смерть?
Оригинальное название: Chi l'ha vista morire?
Год выхода: 1972
Жанр: детектив, триллер
Режиссер: Альдо Ладо
В ролях: Джордж Лэзенби, Анита Стриндберг, Адольфо Чели, Доминик Бошеро, Петер Шатель, Пьеро Вида и др.

Описание: Маленькая дочь известного скульптора пропадает среди сырых венецианских улочек. Некоторое время спустя ее труп вылавливают из канала. Отец пытается выяснить причину трагедии. Известно лишь, что последний раз девочку видели в компании старухи, облаченной в черное.



Страна: Италия, Монако, Франция
Продолжительность: 01:34:24
Перевод: профессиональный (двухголосый закадровый)
Cубтитры: английские (Full, SDH)
Оригинальная аудиодорожка: английский

Качество: BDRemux 1080р
Видео: MPEG-4 AVC Video / 29982 kbps / 1080p / 23.976 fps / 16:9 / High Profile 4.1
Аудио 1: Russian / AC-3 / 2.0 / 48 kHz / 192 kbps / 16-bit
Аудио 2: Italian / LPCM / 1.0 / 48 kHz / 1152 kbps / 24-bit
Аудио 3: English / LPCM / 1.0 / 48 kHz / 1152 kbps / 24-bit


Полное имя : Who.Saw.Her.Die.1972.1080p.Blu-ray.Remux.AVC.mkv
Формат : Matroska
Версия формата : Version 4 / Version 2
Размер файла : 21,4 Гбайт
Продолжительность : 1 ч. 34 м.
Режим общего битрейта : Переменный
Общий поток : 32,4 Мбит/сек
Дата кодирования : UTC 2019-10-04 16:23:36
Программа кодирования : mkvmerge v37.0.0 ('Leave It') 32-bit
Библиотека кодирования : libebml v1.3.9 + libmatroska v1.5.2

Видео
Идентификатор : 1
Формат : AVC
Формат/Информация : Advanced Video Codec
Профиль формата : High@L4.1
Параметр CABAC формата : Да
Параметр ReFrames формата : 3 кадра
Идентификатор кодека : V_MPEG4/ISO/AVC
Продолжительность : 1 ч. 34 м.
Вид битрейта : Переменный
Битрейт : 30,0 Мбит/сек
Максимальный битрейт : 36,0 Мбит/сек
Ширина : 1920 пикселей
Высота : 1080 пикселей
Соотношение сторон : 16:9
Режим частоты кадров : Постоянный
Частота кадров : 23,976 (24000/1001) кадра/сек
Цветовое пространство : YUV
Субдискретизация насыщенности : 4:2:0
Битовая глубина : 8 бит
Тип развёртки : Прогрессивная
Бит/(Пиксели*Кадры) : 0.603
Размер потока : 19,7 Гбайт (92%)
Default : Да
Forced : Нет
Цветовой диапазон : Limited
Основные цвета : BT.709
Характеристики трансфера : BT.709
Коэффициенты матрицы : BT.709

Аудио #1
Идентификатор : 2
Формат : AC-3
Формат/Информация : Audio Coding 3
Расширение режима : CM (complete main)
Параметр Endianness формата : Big
Идентификатор кодека : A_AC3
Продолжительность : 1 ч. 34 м.
Вид битрейта : Постоянный
Битрейт : 192 Кбит/сек
Каналы : 2 канала
Расположение каналов : Front: L R
Частота : 48,0 КГц
Частота кадров : 31,250 кадров/сек (1536 spf)
Битовая глубина : 16 бит
Метод сжатия : С потерями
Задержка видео : -9 с. 384 мс.
Размер потока : 130 Мбайт (1%)
Заголовок : Профессиональный (двухголосый закадровый)
Язык : Russian
Default : Да
Forced : Да

Аудио #2
Идентификатор : 3
Формат : PCM
Идентификатор кодека : A_PCM/INT/LIT
Продолжительность : 1 ч. 34 м.
Вид битрейта : Постоянный
Битрейт : 1152 Кбит/сек
Частота : 48,0 КГц
Частота кадров : 200,000 кадров/сек (240 spf)
Битовая глубина : 24 бит
Задержка видео : 1 мс.
Размер потока : 776 Мбайт (4%)
Язык : Italian
Default : Нет
Forced : Нет

Аудио #3
Идентификатор : 4
Формат : PCM
Идентификатор кодека : A_PCM/INT/LIT
Продолжительность : 1 ч. 34 м.
Вид битрейта : Постоянный
Битрейт : 1152 Кбит/сек
Частота : 48,0 КГц
Частота кадров : 200,000 кадров/сек (240 spf)
Битовая глубина : 24 бит
Задержка видео : 1 мс.
Размер потока : 776 Мбайт (4%)
Язык : English
Default : Нет
Forced : Нет

Текст #1
Идентификатор : 5
Формат : PGS
Режим смешивания : zlib
Идентификатор кодека : S_HDMV/PGS
Идентификатор кодека/Информация : Picture based subtitle format used on BDs/HD-DVDs
Продолжительность : 1 ч. 32 м.
Битрейт : 19,6 Кбит/сек
Count of elements : 1338
Размер потока : 13,0 Мбайт (0%)
Язык : English
Default : Да
Forced : Нет

Текст #2
Идентификатор : 6
Формат : PGS
Режим смешивания : zlib
Идентификатор кодека : S_HDMV/PGS
Идентификатор кодека/Информация : Picture based subtitle format used on BDs/HD-DVDs
Продолжительность : 1 ч. 32 м.
Битрейт : 25,3 Кбит/сек
Count of elements : 1666
Размер потока : 16,8 Мбайт (0%)
Язык : English
Default : Нет
Forced : Нет

Текст #3
Идентификатор : 7
Формат : PGS
Режим смешивания : zlib
Идентификатор кодека : S_HDMV/PGS
Идентификатор кодека/Информация : Picture based subtitle format used on BDs/HD-DVDs
Продолжительность : 1 ч. 32 м.
Битрейт : 472 бит/сек
Count of elements : 59
Размер потока : 321 Кбайт (0%)
Язык : English
Default : Нет
Forced : Нет

Меню
00:00:00.000 : :Глава 01
00:08:41.103 : :Глава 02
00:15:54.328 : :Глава 03
00:23:47.425 : :Глава 04
00:33:50.820 : :Глава 05
00:39:15.644 : :Глава 06
00:46:19.568 : :Глава 07
00:52:38.196 : :Глава 08
01:01:06.704 : :Глава 09
01:09:40.759 : :Глава 10
01:16:55.569 : :Глава 11
01:24:44.120 : :Глава 12
КУБКИ

СТАЖ

МЕДАЛИ
Награды:70

За активную помощь проекту (3) Лучший по количеству кубков (15) За отличные раздачи и качество (6) За отличные комментарии (13) Почётный форумчанин (28) Верный Сид (1) За участие в конкурсах/играх (2)

Аватара пользователя
СССР
al1ksandr
Помощник Администратора-Корсар
  • Торрент
Для скачивания торрента необходимо зарегистрироваться или войти на трекер.

Вернуться в Классика зарубежного кино (фильмы до 1980 года / HD Video)



Uptime по данным Ping-Admin.Ru - сервиса мониторинга доступности сайтов
Рейтинг@Mail.ru