logo
Международный русскоязычный
торрент-трекер
Menu

Doublon
Поделиться с друзьями: 
Голосуй за Корсар и получи 400 дублонов
Рейтинг торрент трекеров - UpTracker.ru

Кристофер Робин / Christopher Robin (2018, фэнтези, драма, комедия, BDRip-AVC) | iTunes

Сообщение Teufel » 09 ноя 2018, 02:17

Название: Кристофер Робин
Оригинальное название: Christopher Robin
Год выхода: 2018
Выпущено: США / Walt Disney Pictures
Жанр: фэнтези, драма, комедия, приключения, семейный
Продолжительность: 01:43:55
Перевод: Профессиональный (полное дублирование) | iTunes
Субтитры: Русские (форсированные)
Навигация по главам: Есть (14 глав)

Режиссер:
Марк Форстер / Marc Forster

В ролях:
Юэн МакГрегор, Хейли Этвелл, Бронте Кармайкл, Марк Гейтисс, Оливер Форд Дейвис, Ронки Адеколуэхо, Эдриан Скарборо, Роджер Эштон-Гриффитс, Кен Нвосу, Джон Даглиш

О фильме: В жизни повзрослевшего Кристофера Робина царит повседневная рутина. Однажды он встречает друга детства — медвежонка Винни. Вместе им предстоит вернуться в Стоакровый лес, чтобы не только отыскать потерявшихся друзей, но и вновь обрести счастье.



| | |

Качество: BDRip-AVC [Christopher.Robin.2018.MULTI.COMPLETE.BD25-EXTREME]
Формат: MKV
Видео кодек: x264
Аудио кодек: AC3
Видео: 1152x482 (2,40:1), 23.976 fps, x264 ~1735 kbps avg, 0.130 bit/pixel
Аудио: 48 kHz, AC3 Dolby Digital, 3/2 (L,C,R,l,r) + LFE ch, ~384 kbps avg - iTunes Russia
Формат субтитров: Softsub (.srt*)


Полное имя : D:Christopher_Robin_2018_BDRip-AVC_iT_by_Dalemake.mkv
Формат : Matroska
Версия формата : Version 4 / Version 2
Размер файла : 1,57 Гбайт
Продолжительность : 1 ч. 43 м.
Общий поток : 2162 Кбит/сек
Название фильма : [Christopher_Robin_2018_All Films_by Dalemake]
Дата кодирования : UTC 2018-11-08 21:38:17
Программа кодирования : mkvmerge v7.8.0 ('River Man') 32bit built on Apr 3 2015 12:11:22
Библиотека кодирования : libebml v1.3.1 + libmatroska v1.4.2
DURATION : 00:50:28.403000000
NUMBER_OF_FRAMES : 2
NUMBER_OF_BYTES : 48
_STATISTICS_WRITING_APP : mkvmerge v7.8.0 ('River Man') 32bit built on Apr 3 2015 12:11:22
_STATISTICS_WRITING_DATE_UTC : 2018-11-08 21:38:17
_STATISTICS_TAGS : BPS DURATION NUMBER_OF_FRAMES NUMBER_OF_BYTES

Видео
Идентификатор : 1
Формат : AVC
Формат/Информация : Advanced Video Codec
Профиль формата : High@L4.1
Параметр CABAC формата : Да
Параметр ReFrames формата : 13 кадров
Идентификатор кодека : V_MPEG4/ISO/AVC
Продолжительность : 1 ч. 43 м.
Битрейт : 1735 Кбит/сек
Ширина : 1152 пикселя
Высота : 482 пикселя
Соотношение сторон : 2,40:1
Частота кадров : 23,976 кадра/сек
Цветовое пространство : YUV
Субдискретизация насыщенности : 4:2:0
Битовая глубина : 8 бит
Тип развёртки : Прогрессивная
Бит/(Пиксели*Кадры) : 0.130
Размер потока : 1,26 Гбайт (80%)
Заголовок : [Christopher_Robin_2018_All Films_by Dalemake]
Библиотека кодирования : x264 core 157 r2935 545de2f
Настройки программы : cabac=1 / ref=13 / deblock=1:-3:-2 / analyse=0x3:0x133 / me=umh / subme=10 / psy=1 / psy_rd=1.00:0.00 / mixed_ref=1 / me_range=48 / chroma_me=1 / trellis=2 / 8x8dct=1 / cqm=0 / deadzone=21,11 / fast_pskip=1 / chroma_qp_offset=-4 / threads=6 / lookahead_threads=1 / sliced_threads=0 / nr=0 / decimate=0 / interlaced=0 / bluray_compat=0 / constrained_intra=0 / bframes=11 / b_pyramid=2 / b_adapt=2 / b_bias=0 / direct=1 / weightb=1 / open_gop=0 / weightp=2 / keyint=240 / keyint_min=23 / scenecut=40 / intra_refresh=0 / rc_lookahead=60 / rc=crf / mbtree=0 / crf=19.7 / qcomp=0.60 / qpmin=0 / qpmax=69 / qpstep=4 / vbv_maxrate=50000 / vbv_bufsize=62500 / crf_max=0.0 / nal_hrd=none / filler=0 / ip_ratio=1.40 / pb_ratio=1.35 / aq=1:1.00
Язык : English
Default : Да
Forced : Нет
DURATION : 01:43:55.990000000
NUMBER_OF_FRAMES : 149514
NUMBER_OF_BYTES : 1384344865
_STATISTICS_WRITING_APP : mkvmerge v7.8.0 ('River Man') 32bit built on Apr 3 2015 12:11:22
_STATISTICS_WRITING_DATE_UTC : 2018-11-08 21:38:17
_STATISTICS_TAGS : BPS DURATION NUMBER_OF_FRAMES NUMBER_OF_BYTES

Аудио
Идентификатор : 2
Формат : AC-3
Формат/Информация : Audio Coding 3
Расширение режима : CM (complete main)
Параметр Endianness формата : Big
Идентификатор кодека : A_AC3
Продолжительность : 1 ч. 43 м.
Вид битрейта : Постоянный
Битрейт : 384 Кбит/сек
Каналы : 6 каналов
Расположение каналов : Front: L C R, Side: L R, LFE
Частота : 48,0 КГц
Битовая глубина : 16 бит
Метод сжатия : С потерями
Размер потока : 285 Мбайт (18%)
Заголовок : Dub - iTunes Russia
Язык : Russian
Default : Да
Forced : Нет

Текст
Идентификатор : 3
Формат : UTF-8
Идентификатор кодека : S_TEXT/UTF8
Идентификатор кодека/Информация : UTF-8 Plain Text
Заголовок : Forced
Язык : Russian
Default : Да
Forced : Да

Меню
00:00:00.000 : en:Chapter 01
00:01:43.394 : en:Chapter 02
00:07:36.038 : en:Chapter 03
00:12:33.043 : en:Chapter 04
00:23:48.260 : en:Chapter 05
00:32:18.519 : en:Chapter 06
00:44:35.464 : en:Chapter 07
00:54:39.150 : en:Chapter 08
00:59:13.508 : en:Chapter 09
01:08:01.368 : en:Chapter 10
01:18:46.263 : en:Chapter 11
01:29:59.811 : en:Chapter 12
01:36:04.550 : en:Chapter 13
01:38:31.947 : en:Chapter 14
КУБКИ

СТАЖ

МЕДАЛИ
Награды:5

За отличные раздачи и качество (1)

Аватара пользователя
Teufel
Опытный Релизёр-Корсар
  • Торрент
Для скачивания торрента необходимо зарегистрироваться или войти на трекер.

Вернуться в Зарубежное кино (2011-2018)



Uptime по данным Ping-Admin.Ru - сервиса мониторинга доступности сайтов
Рейтинг@Mail.ru Голосуйте за наш сайт в каталоге Rubo.Ru