logo
Международный русскоязычный
торрент-трекер
Menu

Doublon
Поделиться с друзьями: 
Голосуй за Корсар и получи 400 дублонов
Рейтинг торрент трекеров - UpTracker.ru

Крым. Путь на Родину (2015, Документальный, HDTV 1080i)

Сообщение Sanechek » 21 фев 2017, 12:56

Крым. Путь на Родину. Фильм Андрея Кондрашова
Год выпуска: 15.03.2015
Страна: Россия
Автор: Андрей Кондрашов
Режиссер-постановщик: Сергей Краус
Жанр: Документальный
Продолжительность: 02:24:00

Описание: Полнометражная документальная лента была задумана, чтобы сохранить для истории каждый значимый эпизод событий, происходивших в Крыму весной 2014 года. Съемки продолжались 8 месяцев и охватили Севастополь и Форос, Симферополь и Керчь, Ялту и Бахчисарай; Феодосию, Джанкой, Алушту и еще десяток населенных пунктов Крыма. По горячим следам был записан большой разговор с Владимиром Путиным, а потом еще больше полусотни интервью с участниками и свидетелями Крымской весны. С чего все началось? Как Россия получила официальное обращение от легитимного президента Украины с просьбой спасти ему жизнь?

Качество: HDTV
Формат: TS
Видео кодек: H.264
Аудио кодек: MP2
Видео: 1920x1080i, 25 fps, ~ 10100kbps
Аудио: 48 kHz, 2 ch, ~192.00 kbps

Format : MPEG-TS
File size : 10.9 GiB
Duration : 2h 24mn
Overall bit rate mode : Variable
Overall bit rate : 10.8 Mbps
Video
ID : 306 (0x132)
Menu ID : 1 (0x1)
Format : AVC
Format/Info : Advanced Video Codec
Format profile : High@L4.0
Format settings, CABAC : Yes
Format settings, ReFrames : 4 frames
Codec ID : 27
Duration : 2h 24mn
Bit rate : 10.1 Mbps
Width : 1 920 pixels
Height : 1 080 pixels
Display aspect ratio : 16:9
Frame rate : 25.000 fps
Standard : Component
Color space : YUV
Chroma subsampling : 4:2:0
Bit depth : 8 bits
Scan type : Interlaced
Scan order : Top Field First
Bits/(Pixel*Frame) : 0.195
Stream size : 10.2 GiB (93%)
Color primaries : BT.709
Transfer characteristics : BT.709
Matrix coefficients : BT.709
Audio
ID : 406 (0x196)
Menu ID : 1 (0x1)
Format : MPEG Audio
Format version : Version 1
Format profile : Layer 2
Codec ID : 3
Duration : 2h 24mn
Bit rate mode : Constant
Bit rate : 192 Kbps
Channel count : 2 channels
Sampling rate : 48.0 KHz
Compression mode : Lossy
Stream size : 199 MiB (2%)
Language : English

КУБКИ

СТАЖ

МЕДАЛИ
Награды:22

За помощь проекту (2) За отличные раздачи и качество (9) За подробное оформление раздач (1) Верный Сид (8)

Аватара пользователя
СССР
Sanechek
Главный Модератор-Корсар
  • Торрент
Для скачивания торрента необходимо зарегистрироваться или войти на трекер.

Вернуться в Документальные фильмы и телепередачи (HD Video)



Uptime по данным Ping-Admin.Ru - сервиса мониторинга доступности сайтов
Рейтинг@Mail.ru Голосуйте за наш сайт в каталоге Rubo.Ru