logo
Международный русскоязычный
торрент-трекер
Menu
"Бунт на корабле", за скачанные торрент-файлы дублоны не снимаются. Возможность оплачена пользователем tarik.
Doublon
Поделиться с друзьями: 
Голосуй за Корсар и получи 500 дублонов
Рейтинг торрент трекеров - UpTracker.ru

Крестоносцы / Krzyzacy (1960, исторический, драма, BDRip 1080p)

Сообщение kisa1980 » 14 янв 2017, 14:34

Название: Крестоносцы
Оригинальное название: Krzyzacy
Год выпуска: 1960
Жанр: Исторический, драма
Режиссер: Александр Форд
В ролях: Уршуля Молджиньская, Гражина Станишевская, Анджей Шалявский, Генрик Боровский, Александр Фогель, Мечислав Каленик, Эмиль Каревич, Тадеуш Косударский, Люцина Винницкая, Тадеуш Бялощиньский, Мечислав Войт.

Описание: На рубеже 14-15 веков, немецкий Тевтонский орден стремится к захвату польских земель. Польский король Ягелло и князь Мазовецкий пытаются уладить отношения с орденом мирным путём, но разбойничьи набеги крестоносцев вызывают всё большую ярость и гнев поляков. Шляхтич Юранд из Спыхова, мстя за свою жену, убитую крестоносцами, ведёт с ними открытую ожесточённую борьбу. Крестоносцы, желая обезвредить грозного врага, тайно похищают дочь Юранда, Данусю, и обещают вернуть её при условии, что Юранд сам приедет за ней в Щитно... Превосходная нестареющая экранизация исторического романа Генрика Сенкевича.



Страна: Польша
Продолжительность: 02:52:38
Перевод: Профессиональный (дублированный), Профессиональный (многоголосый закадровый)

Качество: BDRip 1080p
Формат: MKV
Видео: MPEG4 Video (H264), 1920x856, 24 fps, 11.0 Mbps
Аудио 1: Русский, Dolby AC3, 48000 Hz, 2ch, 192 kbps - Дубляж
Аудио 2: Русский, Dolby AC3, 48000 Hz, 2ch, 192 kbps - Многоголосый
Аудио 3: Польский, Dolby AC3, 48000 Hz, 6ch, 384 kbps - Оригинал
Субтитры: Нет


General
Unique ID : 212642106405891059804711236282785984801 (0x9FF96148C25F0E939EA655326AC3F121)
Complete name : D:Torrent21960.Krzyzacy.likko.mkv
Format : Matroska
Format version : Version 4
File size : 14.2 GiB
Duration : 2 h 52 min
Overall bit rate : 11.8 Mb/s
Movie name : 1960 Крестоносцы/likko
Encoded date : UTC 2019-10-11 07:51:35
Writing application : mkvmerge v8.3.0 ('Over the Horizon') 64bit
Writing library : libebml v1.3.1 + libmatroska v1.4.2

Video
ID : 1
Format : AVC
Format/Info : Advanced Video Codec
Format profile : High@L4.1
Format settings : CABAC / 5 Ref Frames
Format settings, CABAC : Yes
Format settings, Reference : 5 frames
Codec ID : V_MPEG4/ISO/AVC
Duration : 2 h 52 min
Bit rate : 11.0 Mb/s
Width : 1 920 pixels
Height : 856 pixels
Display aspect ratio : 2.25:1
Frame rate mode : Constant
Frame rate : 24.000 FPS
Color space : YUV
Chroma subsampling : 4:2:0
Bit depth : 8 bits
Scan type : Progressive
Bits/(Pixel*Frame) : 0.279
Stream size : 13.3 GiB (93%)
Title : 1960 Крестоносцы
Writing library : x264 core 148 r2638 7599210
Encoding settings : cabac=1 / ref=5 / deblock=1:-1:-1 / analyse=0x3:0x133 / me=umh / subme=11 / psy=1 / psy_rd=1.00:0.15 / mixed_ref=1 / me_range=48 / chroma_me=1 / trellis=2 / 8x8dct=1 / cqm=0 / deadzone=21,11 / fast_pskip=0 / chroma_qp_offset=-3 / threads=18 / lookahead_threads=3 / sliced_threads=0 / nr=0 / decimate=1 / interlaced=0 / bluray_compat=0 / constrained_intra=0 / bframes=8 / b_pyramid=2 / b_adapt=2 / b_bias=0 / direct=3 / weightb=1 / open_gop=0 / weightp=2 / keyint=250 / keyint_min=23 / scenecut=40 / intra_refresh=0 / rc=2pass / mbtree=0 / bitrate=11000 / ratetol=1.0 / qcomp=0.60 / qpmin=0 / qpmax=69 / qpstep=4 / cplxblur=20.0 / qblur=0.5 / ip_ratio=1.40 / pb_ratio=1.30 / aq=2:1.00
Language : Polish
Default : Yes
Forced : No

Audio #1
ID : 2
Format : AC-3
Format/Info : Audio Coding 3
Commercial name : Dolby Digital
Codec ID : A_AC3
Duration : 2 h 52 min
Bit rate mode : Constant
Bit rate : 192 kb/s
Channel(s) : 2 channels
Channel layout : L R
Sampling rate : 48.0 kHz
Frame rate : 31.250 FPS (1536 SPF)
Compression mode : Lossy
Stream size : 237 MiB (2%)
Title : Дубляж
Language : Russian
Service kind : Complete Main
Default : Yes
Forced : No

Audio #2
ID : 3
Format : AC-3
Format/Info : Audio Coding 3
Commercial name : Dolby Digital
Codec ID : A_AC3
Duration : 2 h 52 min
Bit rate mode : Constant
Bit rate : 192 kb/s
Channel(s) : 2 channels
Channel layout : L R
Sampling rate : 48.0 kHz
Frame rate : 31.250 FPS (1536 SPF)
Compression mode : Lossy
Stream size : 237 MiB (2%)
Title : Многоголосый
Language : Russian
Service kind : Complete Main
Default : No
Forced : No

Audio #3
ID : 4
Format : AC-3
Format/Info : Audio Coding 3
Commercial name : Dolby Digital
Codec ID : A_AC3
Duration : 2 h 52 min
Bit rate mode : Constant
Bit rate : 384 kb/s
Channel(s) : 6 channels
Channel layout : L R C LFE Ls Rs
Sampling rate : 48.0 kHz
Frame rate : 31.250 FPS (1536 SPF)
Compression mode : Lossy
Stream size : 474 MiB (3%)
Language : Polish
Service kind : Complete Main
Default : No
Forced : No

Menu
00:00:00.000 : en:Chapter 01
00:15:16.500 : en:Chapter 02
00:24:31.458 : en:Chapter 03
00:42:03.875 : en:Chapter 04
01:01:48.333 : en:Chapter 05
01:22:07.041 : en:Chapter 06
01:32:23.250 : en:Chapter 07
01:45:57.125 : en:Chapter 08
02:03:09.916 : en:Chapter 09
02:22:23.125 : en:Chapter 10
02:33:14.416 : en:Chapter 11
02:49:21.458 : en:Chapter 12

Автор релиза: likko
Последний раз редактировалось kisa1980 11 окт 2019, 14:42, всего редактировалось 2 раз(а).
Причина: Поглощённый торрент
КУБКИ

СТАЖ

МЕДАЛИ
Награды:109

За активную помощь проекту (10) Лучший по количеству кубков (3) За отличные раздачи и качество (37) За подробное оформление раздач (6) За отличные комментарии (9) Почётный форумчанин (12) Верный Сид (28) За участие в конкурсах/играх (2)

Аватара пользователя
Тортуга
kisa1980
Главный помощник Администратора-Корсар
  • Торрент
Для скачивания торрента необходимо зарегистрироваться или войти на трекер.

Сообщение kwazar312 » 11 окт 2019, 15:12

Большой подвиг для польского кинематографа- всего через 15 лет после ужасной, опустошительной Второй мировой войны (а именно с нападения Германии на Польшу она и началась, 1 сентября 1939 г.; почти 6 лет вражеской оккупации и борьбы…)- создать столь масштабный, дорогой и высококлассный фильм, который справедливо причисляется к мировой киноклассике. Роман Генрика Сенкевича «Крестоносцы» стоит у меня на книжной полке на почётном месте. И неспроста некоторые зрители, по невниманию (а в их число чуть было и я не попал!), считают режиссёром «Крестоносцев» Ежи Гоффмана, поскольку он в высшей мере успешно экранизировал другие величайшие романы Сенкевича «Огнём и мечом», «Потоп», «Пан Володыевский» (привожу в исторической хронологии действия). А вот и нет! Тут главреж- пан Александр Форд, на лет 8 опередивший в почтенной работе «с Сенкевичем» пана Гоффмана. Ежели всё-таки попытаться сравнить работу Форда (не забывайте- он начал первым!) и Гоффмана над сходным (Сенкевич) литературным материалом, то вполне можно констатировать следующее и общее: 1) внимательный и бережный подход к первоисточнику-классику; 2) во многом сходные режиссёрские, операторские решения темы; 3) близкая по тенденции музыка разных композиторов (насыщенная национальным колоритом, но всё же фоновая (исключение составляет поздняя картина Гоффмана «Огнём и мечом», где выведена основная музыкальная, запоминающаяся тема). Есть и ещё кое-что, но это уж лучше вы сами, от себя добавьте… А на сакраментальный вопрос, кто бы лучше снял этот фильм, Форд или Гоффман, отвечу уклончиво: вот если бы Гоффман в 1960 году был бы способен снять «Крестоносцев» как своего «Пана Володыевского» девятью годами позже, тогда бы… может быть… было бы и лучше. Одним словом, этот спор беспредметен; принимаем творения такими, какие они есть.
КУБКИ

СТАЖ

МЕДАЛИ
Награды:133

За активную помощь проекту (13) Лучший по количеству кубков (40) За отличные раздачи и качество (3) За отличные комментарии (22) Почётный форумчанин (4) Верный Сид (45) За участие в конкурсах/играх (6)

Аватара пользователя
kwazar312
Заслуженный Корсар-Вип


Вернуться в Классика зарубежного кино (фильмы до 1980 года / HD Video)



Uptime по данным Ping-Admin.Ru - сервиса мониторинга доступности сайтов
Рейтинг@Mail.ru