logo
Международный русскоязычный
торрент-трекер
Menu

Doublon
Поделиться с друзьями: 
Голосуй за Корсар и получи 120 дублонов
Рейтинг торрент трекеров - UpTracker.ru

Крепкий кофеек / Coffy (1973, боевик, триллер, криминал, BDRemux 1080p)

Сообщение inet2663 » 16 апр 2018, 17:49

Название: Крепкий кофеек
Оригинальное название: Coffy
Год выпуска: 1973
Жанр: боевик, триллер, криминал
Режиссёр: Джек Хилл
В ролях: Пэм Гриер, Букер Брэдшоу, Роберт Дукуй, Уильям Эллиотт, Аллан Арбас, Сид Хэйг, Бэрри Кехилл, Ли Де Бру, Рубен Морено

О фильме: Приключенческий боевик, в котором женщина, жившая обычной жизнью и ничем не выделявшаяся из толпы, оказалась одержима местью. Она собирается убить всех, кто виноват в том, что ее 11-летняя сестра потеряла рассудок из-за употребления наркотиков. Частенько она соблазнительно заманивает свои жертвы, а потом разносит их к чертовой матери из дробовика, который просто не может дать промашки. Джек Хиллер, сценарист и режиссер фильма, сделал картину крайне реалистичной в тех сценах, в которых знаменитая секс-бомба Пэм Грайер умело расправляется со своими жертвами, всегда находя для себя оправдание. Она "мочит" всех подряд: уличных торговцев, продажных полицейских и политиков, сутенеров, гангстеров и так далее с яростью, которая выливается в совершенно безумные, кровавые сцены...



Выпущено: США, MGM, American International Pictures (AIP), Papazian-Hirsch Entertainment International LP
Перевод: Профессиональный многоголосый, профессиональный двухголосый
Продолжительность: 01:30:03

Качество: BDRemux 1080p
Видео: MPEG-4 AVC, 34993 Кбит/с, 1920x1080, 23.976 кадр/с
Аудио1: Russian; AC3; 48.0 KHz; 2ch; 192 Kbps - НТВ+
Аудио2: Russian; AC3; 48.0 KHz; 2ch; 192 Kbps - Профессиональный (многоголосый, закадровый) 1
Аудио3: Russian; AC3; 48.0 KHz; 2ch; 192 Kbps - Профессиональный (многоголосый, закадровый) 2
Аудио4: English; FLAC; 48.0 KHz; 1ch; 654 Kbps
Аудио5: English; AC3; 48.0 KHz; 2ch; 192 Kbps
Субтитры: Английские

cyberlaw от 17 июня 2012
Потрясающее кино. Динамика этого фильма бьет с самого ее начала и этот темп остается на протяжении всего фильма. Но дело даже не в сюжете. С самого начала на нас обрушивается неимоверно высокий темп повествования.
В начале фильма Коффи мстит наркоторговцам за смерть от наркомании близкого ей человека. Но вскоре она понимает что проблему нужно устранять полностью. Необходимо уничтожить организаторов, и ей это под силу…
Пэм Гриер играет весьма странный для американского кино женский образ — героиню, которая ведет себя как альфа-самец. Даже сексуальное насилие не может сломить ее — это просто повод для того чтобы отомстить.
Ирония судьбы, что женщина, которая в детском возрасте серьезно пострадала от сексуального насилия, повзрослев сама стала героиней «эксплуатационного» кино.
Несмотря на то, что многие трюки поставлены слабо, а сценарий больше напоминает экспромт, мне это кино очень нравится своей динамикой.
Ну а что касается игры Пэм Гриер, то для меня нет никаких вопросов относительно того, кто сыграл лучшую женскую роль в 1973 году. На мой взгляд, это были вовсе не Барбра Стрейзанд (Встреча двух сердец), Жаклин Биссе (Американская ночь) или Эллен Берстин (Экзорсист). Мой выбор прост — Пэм Гриер в роль Коффи.
В итоге: в этом фильме есть настоящий задор, а это всегда завораживает. Смотря «Коффи» начинаешь понимать «откуда» произошли «Джеки Браун» и «Убить Билла».
Нужно отметить и то, что фильм снят весьма талантливым режиссером — Джек Хилл начинал вместе с Френсисом Копполой и Джеком Николсоном в проектах Роджера Кормена.
10 из 10

Format : Matroska
Format version : Version 4 / Version 2
File size : 22.9 GiB
Duration : 1 h 30 min
Overall bit rate mode : Variable
Overall bit rate : 36.4 Mb/s
Encoded date : UTC 2017-02-13 07:44:26
Writing application : mkvmerge v8.3.0 ('Over the Horizon') 64bit
Writing library : libebml v1.3.1 + libmatroska v1.4.2
Attachments : poster.jpg

Video
ID : 1
Format : AVC
Format/Info : Advanced Video Codec
Format profile : High@L4.1
Format settings, CABAC : Yes
Format settings, ReFrames : 3 frames
Codec ID : V_MPEG4/ISO/AVC
Duration : 1 h 30 min
Bit rate mode : Variable
Bit rate : 35.0 Mb/s
Maximum bit rate : 38.0 Mb/s
Width : 1 920 pixels
Height : 1 080 pixels
Display aspect ratio : 16:9
Frame rate mode : Constant
Frame rate : 23.976 (24000/1001) FPS
Color space : YUV
Chroma subsampling : 4:2:0
Bit depth : 8 bits
Scan type : Progressive
Bits/(Pixel*Frame) : 0.704
Stream size : 22.0 GiB (96%)
Writing library : x264 core 128 r2216 198a7ea
Encoding settings : cabac=1 / ref=4 / deblock=0:-1:-1 / analyse=0x3:0x133 / me=umh / subme=10 / psy=1 / psy_rd=1.00:0.15 / mixed_ref=1 / me_range=24 / chroma_me=1 / trellis=2 / 8x8dct=1 / cqm=0 / deadzone=21,11 / fast_pskip=1 / chroma_qp_offset=-3 / threads=12 / lookahead_threads=2 / sliced_threads=0 / slices=4 / nr=0 / decimate=1 / interlaced=0 / bluray_compat=1 / constrained_intra=0 / bframes=3 / b_pyramid=1 / b_adapt=2 / b_bias=0 / direct=3 / weightb=1 / open_gop=1 / weightp=1 / keyint=24 / keyint_min=1 / scenecut=40 / intra_refresh=0 / rc_lookahead=24 / rc=2pass / mbtree=0 / bitrate=35000 / ratetol=1.0 / qcomp=0.00 / qpmin=0 / qpmax=69 / qpstep=4 / cplxblur=20.0 / qblur=0.5 / vbv_maxrate=38000 / vbv_bufsize=28500 / nal_hrd=vbr / ip_ratio=1.40 / pb_ratio=1.30 / aq=1:0.50
Default : Yes
Forced : No
Color range : Limited
Color primaries : BT.709
Transfer characteristics : BT.709
Matrix coefficients : BT.709

Audio #1
ID : 2
Format : AC-3
Format/Info : Audio Coding 3
Mode extension : CM (complete main)
Format settings, Endianness : Big
Codec ID : A_AC3
Duration : 1 h 29 min
Bit rate mode : Constant
Bit rate : 192 kb/s
Channel(s) : 2 channels
Channel positions : Front: L R
Sampling rate : 48.0 kHz
Frame rate : 31.250 FPS (1536 spf)
Bit depth : 16 bits
Compression mode : Lossy
Stream size : 124 MiB (1%)
Title : DVO НТВ+
Language : Russian
Default : Yes
Forced : No

Audio #2
ID : 3
Format : AC-3
Format/Info : Audio Coding 3
Mode extension : CM (complete main)
Format settings, Endianness : Big
Codec ID : A_AC3
Duration : 1 h 30 min
Bit rate mode : Constant
Bit rate : 192 kb/s
Channel(s) : 2 channels
Channel positions : Front: L R
Sampling rate : 48.0 kHz
Frame rate : 31.250 FPS (1536 spf)
Bit depth : 16 bits
Compression mode : Lossy
Stream size : 124 MiB (1%)
Title : MVO 1
Language : Russian
Default : No
Forced : No

Audio #3
ID : 4
Format : AC-3
Format/Info : Audio Coding 3
Mode extension : CM (complete main)
Format settings, Endianness : Big
Codec ID : A_AC3
Duration : 1 h 30 min
Bit rate mode : Constant
Bit rate : 192 kb/s
Channel(s) : 2 channels
Channel positions : Front: L R
Sampling rate : 48.0 kHz
Frame rate : 31.250 FPS (1536 spf)
Bit depth : 16 bits
Compression mode : Lossy
Stream size : 124 MiB (1%)
Title : MVO 2
Language : Russian
Default : No
Forced : No

Audio #4
ID : 5
Format : FLAC
Format/Info : Free Lossless Audio Codec
Codec ID : A_FLAC
Duration : 1 h 30 min
Bit rate mode : Variable
Bit rate : 654 kb/s
Channel(s) : 1 channel
Channel positions : Front: C
Sampling rate : 48.0 kHz
Frame rate : 11.719 FPS (4096 spf)
Bit depth : 24 bits
Stream size : 421 MiB (2%)
Writing library : libFLAC 1.2.1 (UTC 2007-09-17)
Language : English
Default : No
Forced : No

Audio #5
ID : 6
Format : AC-3
Format/Info : Audio Coding 3
Mode extension : CM (complete main)
Format settings, Endianness : Big
Codec ID : A_AC3
Duration : 1 h 30 min
Bit rate mode : Constant
Bit rate : 192 kb/s
Channel(s) : 2 channels
Channel positions : Front: L R
Sampling rate : 48.0 kHz
Frame rate : 31.250 FPS (1536 spf)
Bit depth : 16 bits
Compression mode : Lossy
Stream size : 124 MiB (1%)
Language : English
Default : No
Forced : No

Text
ID : 7
Format : UTF-8
Codec ID : S_TEXT/UTF8
Codec ID/Info : UTF-8 Plain Text
Duration : 1 h 28 min
Bit rate : 54 b/s
Count of elements : 879
Stream size : 35.6 KiB (0%)
Language : English
Default : No
Forced : No

Menu
00:00:00.000 : en:00:00:00.000
00:07:40.335 : en:00:07:40.335
00:14:19.067 : en:00:14:19.067
00:22:10.412 : en:00:22:10.412
00:31:52.744 : en:00:31:52.744
00:38:53.498 : en:00:38:53.498
00:45:05.786 : en:00:45:05.786
00:52:32.649 : en:00:52:32.649
00:59:54.466 : en:00:59:54.466
01:09:47.392 : en:01:09:47.392
01:17:43.367 : en:01:17:43.367
01:23:17.117 : en:01:23:17.117

Аватара пользователя
inet2663
Модератор-Корсар
 
 

Награды: 24
За помощь проекту (3) Лучший по количеству кубков (4) За отличные раздачи и качество (7) За подробное оформление раздач (1) Верный Сид (7)
  • Торрент
Для скачивания торрента необходимо зарегистрироваться или войти на трекер.

Вернуться в Классика зарубежного кино (фильмы до 1980 года / HD Video)



Uptime по данным Ping-Admin.Ru - сервиса мониторинга доступности сайтов
Рейтинг@Mail.ru