logo
Международный русскоязычный
торрент-трекер
Menu
Поделиться с друзьями: 
Голосуй за Корсар и получи 500 дублонов
Рейтинг торрент трекеров - UpTracker.ru

Коронавирус. Все, что нужно знать (2020, документальный, WEB-DL 1080p)

Сообщение kisa1980 » 19 мар 2020, 15:04

Название: Коронавирус. Все, что нужно знать
Год выпуска: 2020
Жанр: Документальный
Режиссер: Юлия Перкуль, Кирилл Васильев

О фильме: Мы выясним, есть ли эффективная профилактика от заражения коронавирусом, почему маски не защищают, и какие способы заразиться, кроме прямого контакта с заболевшим, наиболее вероятны. Что такое современные вакцины от вирусов, как их производят, и почему вакцина от коронавируса – это дело не сегодняшнего дня. И почему, при всей заразности вируса, массовая вакцинация, скорее всего, не понадобится?

Выпущено: Россия, Первый канал
Продолжительность: 00:45:12
Перевод: Не требуется

Качество: WEB-DL 1080p
Формат: Matroska
Видео: MPEG-4 AVC, ~ 5120 Кбит/с, 1920x1080
Аудио: Русский: AC3, 2 ch, 192 Кбит/с
Субтитры: Нет

Общее
Уникальный идентификатор : 219838917273179395555446390440466356812 (0xA5636F7486DEE8AB84F8762634CC9A4C)
Полное имя : Koronavirus.2020.WEB-DL.1080p.mkv
Формат : Matroska
Версия формата : Version 4
Размер файла : 1,68 Гбайт
Продолжительность : 45 м. 14 с.
Общий поток : 5305 Кбит/сек
Дата кодирования : UTC 2020-03-19 00:06:14
Программа кодирования : mkvmerge v8.3.0 ('Over the Horizon') 64bit
Библиотека кодирования : libebml v1.3.1 + libmatroska v1.4.2

Видео
Идентификатор : 1
Формат : AVC
Формат/Информация : Advanced Video Codec
Профиль формата : High@L4
Настройки формата : CABAC / 4 Ref Frames
Параметр CABAC формата : Да
Параметр RefFrames формата : 4 кадра
Идентификатор кодека : V_MPEG4/ISO/AVC
Продолжительность : 45 м. 14 с.
Битрейт : 5120 Кбит/сек
Ширина : 1920 пикселей
Высота : 1080 пикселей
Соотношение сторон : 16:9
Режим частоты кадров : Постоянный
Частота кадров : 25,000 кадров/сек
Цветовое пространство : YUV
Субдискретизация насыщенности : 4:2:0
Битовая глубина : 8 бит
Тип развёртки : Прогрессивная
Бит/(Пиксели*Кадры) : 0.099
Размер потока : 1,61 Гбайт (96%)
Default : Да
Forced : Нет

Аудио
Идентификатор : 2
Формат : AC-3
Формат/Информация : Audio Coding 3
Коммерческое название : Dolby Digital
Идентификатор кодека : A_AC3
Продолжительность : 45 м. 14 с.
Вид битрейта : Постоянный
Битрейт : 192 Кбит/сек
Каналы : 2 канала
ChannelLayout : L R
Частота : 48,0 КГц
Частота кадров : 31,250 кадров/сек (1536 SPF)
Метод сжатия : С потерями
Размер потока : 62,1 Мбайт (4%)
Язык : Russian
ServiceKind/String : Complete Main
Default : Да
Forced : Нет
КУБКИ

СТАЖ

МЕДАЛИ
Награды:115

За активную помощь проекту (12) Лучший по количеству кубков (4) За отличные раздачи и качество (43) За подробное оформление раздач (10) За отличные комментарии (10) Почётный форумчанин (3) Верный Сид (30) За участие в конкурсах/играх (2)

Аватара пользователя
Тортуга
kisa1980
Главный помощник Администратора-Корсар
  • Торрент
Для скачивания торрента необходимо зарегистрироваться или войти на трекер.

Сообщение Khargor » 19 мар 2020, 16:12

Все, что нужно знать это то, что его нет. А есть лишь глобальный спектакль, всепланетарная мистификация, фарс.
КУБКИ

СТАЖ

МЕДАЛИ
Награды:17

За отличные раздачи и качество (1) За отличные комментарии (6) Почётный форумчанин (1) Верный Сид (9)

Аватара пользователя
СССР
Khargor
Уважаемый Корсар

Сообщение 53212 » 19 мар 2020, 16:50

Срочная информация!
Новая эпидемия! В мире высокими темпами *растет количество здоровых людей!
Тысячи таких людей найдены в Китае. Испании. Италии. России...
Вирус здоровья распространяется по всему миру.
Такие люди, заражённые Здорововирусом очень опасны!
Они не покупают лекарств. Не ходят по поликлиникам! Не разговаривают о болезнях! Занимаются спортом! Обливаются холодной водой! Питаются здоровой пищей! Не пьют не курят! Не употребляют наркотики! Они улыбаются и у них всегда хорошее настроение!
Они не смотрят телевизор, в котором максимальное количество времени уделяется запугиванию и убеждению в том, что человек не может быть здоров! И тем более самостоятельно!
Инструкция о том как заразиться Здорововирусом:
Если рядом с вами пробежал здоровый человек нужно:
Присоедениться к нему и пробежать с ним хотя бы квартальчик!
Если видите говорящих о болезнях держитесь от них подальше!
Посылайте всем Любовь, Радость Здоровье!
Чувствуйте себя Здоровым, Счастливым, Радостным Человеком!
Заражайтесь Здоровьем! Им уже заразилось огромное количество людей!

БУДЬТЕ ЗДОРОВЫ❣
Посмотреть товар в профиле пользователя

Нажмите на изображение, чтобы увидеть в полный размер  
1 шт.
Нажмите на изображение, чтобы увидеть в полный размер  
1 шт.
СТАЖ

МЕДАЛИ


Аватара пользователя
Russia
53212
Опытный Корсар

Сообщение filbi1976 » 05 май 2020, 16:25

Наши уже расшифровали геном этого вируса.
https://www.vedomosti.ru/technology/new ... .ru%2Fnews


Тема поднималась пользователем filbi1976 05 май 2020, 16:25.
The Show Must Go On
Посмотреть товар в профиле пользователя

Нажмите на изображение, чтобы увидеть в полный размер  
1 шт.
Нажмите на изображение, чтобы увидеть в полный размер  
1 шт.
Нажмите на изображение, чтобы увидеть в полный размер  
1 шт.
Нажмите на изображение, чтобы увидеть в полный размер  
1 шт.
Нажмите на изображение, чтобы увидеть в полный размер  
1 шт.
Нажмите на изображение, чтобы увидеть в полный размер  
1 шт.
Нажмите на изображение, чтобы увидеть в полный размер  
1 шт.
Нажмите на изображение, чтобы увидеть в полный размер  
1 шт.
Нажмите на изображение, чтобы увидеть в полный размер  
1 шт.
Нажмите на изображение, чтобы увидеть в полный размер  
1 шт.
Нажмите на изображение, чтобы увидеть в полный размер  
1 шт.
Нажмите на изображение, чтобы увидеть в полный размер  
1 шт.
Нажмите на изображение, чтобы увидеть в полный размер  
1 шт.
Нажмите на изображение, чтобы увидеть в полный размер  
1 шт.
Нажмите на изображение, чтобы увидеть в полный размер  
1 шт.
КУБКИ

СТАЖ

МЕДАЛИ
Награды:164

За активную помощь проекту (5) Лучший по количеству кубков (1) За отличные раздачи и качество (108) За подробное оформление раздач (4) За отличные комментарии (7) Почётный форумчанин (2) Верный Сид (33) За участие в конкурсах/играх (2) 3 место в конкурсах/играх (1)

Аватара пользователя
Тортуга
filbi1976
Администратор-Корсар


Вернуться в Документальные фильмы и телепередачи (HD Video)



Uptime по данным Ping-Admin.Ru - сервиса мониторинга доступности сайтов
Рейтинг@Mail.ru