logo
Международный русскоязычный
торрент-трекер
Menu
Поделиться с друзьями: 
Голосуй за Корсар и получи 500 дублонов
Рейтинг торрент трекеров - UpTracker.ru

Королевство / Kingdeom / Kingdom / Сезон: 02 / Серии: 01-06 из 06 (2020, ужасы, боевик, триллер, WEB-DL 1080p) | HDrezka Studio

Сообщение kisa1980 » 17 мар 2020, 16:03

Название: Королевство
Оригинальное название: Kingdeom / Kingdom
Год выпуска: 2020
Жанр: Ужасы, боевик, триллер
Режиссер: Ким Сон-хун
В ролях: Чу Джи-хун, Рю Сын-нён, Пэ Ду-на, Ким Сан-хо, Хо Джун-хо, Ким Сон-гю, Чон Сок-хо, Ким Хе-джун, Чон Сог-вон, Чин Сон-гю

О фильме: Великое государство Чосон переживает не лучшие времена. Проигранная война с Японией разорила большую часть страны, а неурожай и политика изоляции губят ее еще сильнее. Однако правящей династии не до хлопот о голодающем и нищем народе: в столице назревает передел власти. По слухам, старый король сильно болен, а потому делами в стране заправляет глава могущественного клана Чо, государственный советник и коварный интриган Чо Хак-чу (Рю Сын-нён). Его поддерживает беременная королева, вынашивающая наследника престола. С его рождением клан Чо узаконит свою власть и повергнет Чосон в еще больший хаос. Но главная опасность угрожает пока единственному сыну короля — принцу Ли Чхану (Чу Джихун), отпрыску наложницы. Ли Чхан понимает: после рождения брата Чо избавится от него. К тому же он не верит в загадочную и стремительную болезнь отца, столь выгодную для клана. Правителя никто не видел уже несколько недель, к нему не пускают никого, кроме советника, королевы да пары приближенных, а между тем во дворце начинают пропадать слуги. Подозревающий заговор против отца принц в компании верного телохранителя отправляется на юг, чтобы разыскать доктора, лечившего короля, и вывести Чо на чистую воду. В Ханяне его обвиняют в измене, за ним мчатся солдаты, но настоящий ужас охватывает Ли Чхана на месте: вместо ответов в маленькой деревушке он находит лишь следы кровавого побоища и горы трупов. Теперь принцу предстоит остановить внезапную вспышку эпидемии, спасти выживших и понять, как во всем этом замешаны чиновники из клана Чо. Но прежде ему и его будущим подданным нужно пережить ночь, ведь с наступлением темноты мертвецы оживают.



Страна: Корея Южная, США
Студия: Netflix, AStory
Продолжительность: 6х ~ 00:55:00
Перевод: Профессиональный (многоголосый, закадровый) | HDrezka Studio

Качество: WEB-DL 1080p
Формат: Matroska
Видео: 1920x1080 at 23.976 fps, MPEG-4 AVC, ~7133 kbps avg
Аудио 1: Russian: 48 kHz, AC3, 2/0 (L,R) ch, ~192 kbps avg |Многоголосый закадровый, HDrezka Studio|
Аудио 2: Korean: 48 kHz, AC3 JOC, 3/2 (L,C,R,l,r) + LFE ch, ~768 kbps avg |Оригинал|
Субтитры: Russian (Full |Netflix|), English, Korean

Сериал основан на веб-комиксе «Страна бога» («Sinui nara»).
Главная роль была предложена Сон Джун-ги, но он отклонил предложение.
16 января 2018 года один из членов художественной группы умер от переутомления на работе.
Является вторым южнокорейским сериалом, заказанным стрим-сервисом Netflix, но первым выпущенным.
Действие сериала происходит примерно в XV-XVI вв.
Актёры, исполнившие роли зомби, проходили специальную подготовку в течение двух месяцев.
General
Complete name : Downloads\Kingdom.2019.S02.1080p.NF.WEB-DL.x264.[HDRezka]\Kingdom.S02E01.1080p.NF.WEB-DL.x264.mkv
Format : Matroska
Format version : Version 4 / Version 2
File size : 3.02 GiB
Duration : 52mn 23s
Overall bit rate mode : Variable
Overall bit rate : 8 257 Kbps
Encoded date : UTC 2020-03-17 01:17:46
Writing application : mkvmerge v44.0.0 ('Domino') 64-bit
Writing library : libebml v1.3.10 + libmatroska v1.5.2
DURATION : 00:52:23.648000000
NUMBER_OF_FRAMES : 98239
NUMBER_OF_BYTES : 75447552
_STATISTICS_WRITING_APP : mkvmerge v44.0.0 ('Domino') 64-bit
_STATISTICS_WRITING_DATE_UTC : 2020-03-17 01:17:46
_STATISTICS_TAGS : BPS DURATION NUMBER_OF_FRAMES NUMBER_OF_BYTES

Video #1
ID : 1
Format : AVC
Format/Info : Advanced Video Codec
Format profile : Main@L4.0
Format settings, CABAC : Yes
Format settings, ReFrames : 3 frames
Codec ID : V_MPEG4/ISO/AVC
Duration : 52mn 23s
Bit rate mode : Variable
Bit rate : 7 133 Kbps
Nominal bit rate : 7 500 Kbps
Maximum bit rate : 11.2 Mbps
Width : 1 920 pixels
Height : 1 080 pixels
Display aspect ratio : 16:9
Frame rate mode : Constant
Frame rate : 23.976 fps
Color space : YUV
Chroma subsampling : 4:2:0
Bit depth : 8 bits
Scan type : Progressive
Bits/(Pixel*Frame) : 0.143
Stream size : 2.61 GiB (86%)
Writing library : x264 core 148 r2717 0d2410d
Encoding settings : cabac=1 / ref=3 / deblock=1:0:0 / analyse=0x1:0x111 / me=umh / subme=10 / psy=1 / psy_rd=1.00:0.00 / mixed_ref=1 / me_range=24 / chroma_me=1 / trellis=2 / 8x8dct=0 / cqm=0 / deadzone=21,11 / fast_pskip=1 / chroma_qp_offset=-2 / threads=6 / lookahead_threads=1 / sliced_threads=0 / nr=0 / decimate=1 / interlaced=0 / bluray_compat=0 / stitchable=1 / constrained_intra=0 / bframes=2 / b_pyramid=0 / b_adapt=2 / b_bias=0 / direct=3 / weightb=1 / open_gop=0 / weightp=2 / keyint=250 / keyint_min=23 / scenecut=0 / intra_refresh=0 / rc_lookahead=48 / rc=2pass / mbtree=1 / bitrate=7500 / ratetol=1.0 / qcomp=0.50 / qpmin=6 / qpmax=51 / qpstep=4 / cplxblur=20.0 / qblur=0.5 / vbv_maxrate=11250 / vbv_bufsize=15000 / nal_hrd=vbr / filler=0 / ip_ratio=1.40 / aq=1:1.00
Default : Yes
Forced : No

Audio #2
ID : 2
Format : AC-3
Format/Info : Audio Coding 3
Mode extension : CM (complete main)
Format settings, Endianness : Big
Codec ID : A_AC3
Duration : 52mn 23s
Bit rate mode : Constant
Bit rate : 192 Kbps
Channel(s) : 2 channels
Channel positions : Front: L R
Sampling rate : 48.0 KHz
Bit depth : 16 bits
Compression mode : Lossy
Stream size : 72.0 MiB (2%)
Language : Russian
Default : Yes
Forced : No

Audio #3
ID : 3
Format : E-AC-3
Format/Info : Audio Coding 3
Format settings, Endianness : Big
Codec ID : A_EAC3
Duration : 52mn 23s
Bit rate mode : Constant
Bit rate : 768 Kbps
Channel(s) : 6 channels
Channel positions : Front: L C R, Side: L R, LFE
Sampling rate : 48.0 KHz
Compression mode : Lossy
Stream size : 288 MiB (9%)
Title : Korean
Language : Korean
Default : No
Forced : No

Text #4
ID : 4
Format : UTF-8
Codec ID : S_TEXT/UTF8
Codec ID/Info : UTF-8 Plain Text
Language : Russian
Default : No
Forced : No

Text #5
ID : 5
Format : UTF-8
Codec ID : S_TEXT/UTF8
Codec ID/Info : UTF-8 Plain Text
Title : SDH
Language : English
Default : No
Forced : No

Text #6
ID : 6
Format : UTF-8
Codec ID : S_TEXT/UTF8
Codec ID/Info : UTF-8 Plain Text
Language : English
Default : No
Forced : No

Text #7
ID : 7
Format : UTF-8
Codec ID : S_TEXT/UTF8
Codec ID/Info : UTF-8 Plain Text
Language : Korean
Default : No
Forced : No

Text #8
ID : 8
Format : UTF-8
Codec ID : S_TEXT/UTF8
Codec ID/Info : UTF-8 Plain Text
Title : SDH
Language : Korean
Default : No
Forced : No
КУБКИ

СТАЖ

МЕДАЛИ
Награды:115

За активную помощь проекту (12) Лучший по количеству кубков (4) За отличные раздачи и качество (43) За подробное оформление раздач (10) За отличные комментарии (10) Почётный форумчанин (3) Верный Сид (30) За участие в конкурсах/играх (2)

Аватара пользователя
Тортуга
kisa1980
Главный помощник Администратора-Корсар
  • Торрент
Для скачивания торрента необходимо зарегистрироваться или войти на трекер.

Вернуться в Зарубежные сериалы (HD Video)



Uptime по данным Ping-Admin.Ru - сервиса мониторинга доступности сайтов
Рейтинг@Mail.ru