logo
Международный русскоязычный
торрент-трекер
Menu
Поделиться с друзьями: 
Голосуй за Корсар и получи 500 дублонов
Рейтинг торрент трекеров - UpTracker.ru

Королевский бродяга 2 / Luk ting kei II: San lung gau / Royal Tramp II (1992, Боевик, комедия, BDRemux 1080p)

Сообщение al1ksandr » 29 июн 2020, 15:18

Название: Королевский бродяга 2
Оригинальное название: Luk ting kei II: San lung gau (Royal Tramp II)
Год выпуска: 1992
Жанр: Боевик, комедия
Режиссер: Вон Цзин
В ролях: Стивен Чоу, Бриджит Лин, Чингми Яу, Мишель Райс, Сандра Нг, Фенние Юэнь, Вивиан Чан, Хелен Ма, Чань Пак-Чун, Дэмиэн Лау

О фильме: Оболтус и прощелыга Уилсон Бонд попадает в сложное положение, получая неожиданно для себя боевую силу кунг-фу. Ему приходится обучаться владению силой, чтобы противостоять сильным противникам…



Выпущено: Гонконг, Win's Movie Productions Ltd.
Продолжительность: 01:37:46
Перевод: Авторский

Качество: BDRemux 1080p
Видео: MPEG-4 AVC, 23 Мбит/с, 1920x1080, 23.976 кадр/c
Аудио 1: Русский (АС3, 2 ch, 192 Кбит/с, 48.0 KHz) Авторский | Сергей Кузнецов
Аудио 2: Китайский (TrueHD, 8 ch, 2435 Кбит/с, 48.0 KHz) Кантонский диалект
Аудио 3: Китайский (АС3, 6 ch, 640 Кбит/с, 48.0 KHz) Кантонский диалект
Аудио 4: Китайский (АС3, 6 ch, 640 Кбит/с, 48.0 KHz) Мандаринский диалект
Субтитры: Английские




General
Unique ID : 32520818454400329407042843628926282537 (0x187748248D2CABD2E3C3A5176EA62B29)
Complete name : E:\Мои рипы\Королевский бродяга 2.1992.BDRemux.1080p.R.G. Goldenshara.mkv
Format : Matroska
Format version : Version 4
File size : 18.4 GiB
Duration : 1 h 37 min
Overall bit rate mode : Variable
Overall bit rate : 26.9 Mb/s
Movie name : Royal Tramp II - Blu-ray™
Encoded date : UTC 2020-06-29 01:19:03
Writing application : mkvmerge v46.0.0 ('No Deeper Escape') 64-bit
Writing library : libebml v1.3.10 + libmatroska v1.5.2
Cover : Yes
Attachments : cover.jpg

Video
ID : 1
Format : AVC
Format/Info : Advanced Video Codec
Format profile : High@L4.1
Format settings : CABAC / 4 Ref Frames
Format settings, CABAC : Yes
Format settings, Reference : 4 frames
Codec ID : V_MPEG4/ISO/AVC
Duration : 1 h 37 min
Bit rate mode : Variable
Bit rate : 23.0 Mb/s
Maximum bit rate : 29.0 Mb/s
Width : 1 920 pixels
Height : 1 080 pixels
Display aspect ratio : 16:9
Frame rate mode : Constant
Frame rate : 23.976 (24000/1001) FPS
Standard : NTSC
Color space : YUV
Chroma subsampling : 4:2:0
Bit depth : 8 bits
Scan type : Progressive
Bits/(Pixel*Frame) : 0.462
Stream size : 15.7 GiB (85%)
Language : Chinese
Default : Yes
Forced : No
Color range : Limited
Color primaries : BT.709
Transfer characteristics : BT.709
Matrix coefficients : BT.709

Audio #1
ID : 2
Format : AC-3
Format/Info : Audio Coding 3
Commercial name : Dolby Digital
Codec ID : A_AC3
Duration : 1 h 37 min
Bit rate mode : Constant
Bit rate : 192 kb/s
Channel(s) : 2 channels
Channel layout : L R
Sampling rate : 48.0 kHz
Frame rate : 31.250 FPS (1536 SPF)
Compression mode : Lossy
Stream size : 134 MiB (1%)
Title : AVO Сергей Кузнецов
Language : Russian
Service kind : Complete Main
Default : Yes
Forced : No

Audio #2
ID : 3
Format : MLP FBA
Format/Info : Meridian Lossless Packing FBA
Commercial name : Dolby TrueHD
Codec ID : A_TRUEHD
Duration : 1 h 37 min
Bit rate mode : Variable
Bit rate : 2 435 kb/s
Maximum bit rate : 3 762 kb/s
Channel(s) : 8 channels
Channel layout : L R C LFE Ls Rs Lb Rb
Sampling rate : 48.0 kHz
Frame rate : 1 200.000 FPS (40 SPF)
Compression mode : Lossless
Stream size : 1.66 GiB (9%)
Language : Chinese
Default : No
Forced : No

Audio #3
ID : 4
Format : AC-3
Format/Info : Audio Coding 3
Commercial name : Dolby Digital
Codec ID : A_AC3
Duration : 1 h 37 min
Bit rate mode : Constant
Bit rate : 640 kb/s
Channel(s) : 6 channels
Channel layout : L R C LFE Ls Rs
Sampling rate : 48.0 kHz
Frame rate : 31.250 FPS (1536 SPF)
Compression mode : Lossy
Stream size : 447 MiB (2%)
Language : Chinese
Service kind : Complete Main
Default : No
Forced : No

Audio #4
ID : 5
Format : AC-3
Format/Info : Audio Coding 3
Commercial name : Dolby Digital
Codec ID : A_AC3
Duration : 1 h 37 min
Bit rate mode : Constant
Bit rate : 640 kb/s
Channel(s) : 6 channels
Channel layout : L R C LFE Ls Rs
Sampling rate : 48.0 kHz
Frame rate : 31.250 FPS (1536 SPF)
Compression mode : Lossy
Stream size : 447 MiB (2%)
Language : Chinese
Service kind : Complete Main
Default : No
Forced : No

Text
ID : 6
Format : UTF-8
Codec ID : S_TEXT/UTF8
Codec ID/Info : UTF-8 Plain Text
Duration : 1 h 35 min
Bit rate : 53 b/s
Count of elements : 1660
Stream size : 37.4 KiB (0%)
Language : English
Default : No
Forced : No

Menu
00:00:00.000 : en:Глава 01
00:04:42.991 : en:Глава 02
00:11:08.376 : en:Глава 03
00:15:28.594 : en:Глава 04
00:18:36.323 : en:Глава 05
00:24:43.023 : en:Глава 06
00:28:50.353 : en:Глава 07
00:35:51.065 : en:Глава 08
00:38:49.118 : en:Глава 09
00:45:06.203 : en:Глава 10
00:48:58.894 : en:Глава 11
00:54:10.538 : en:Глава 12
00:58:01.811 : en:Глава 13
01:02:25.616 : en:Глава 14
01:05:13.826 : en:Глава 15
01:13:36.912 : en:Глава 16
01:16:39.219 : en:Глава 17
01:20:41.586 : en:Глава 18
01:28:40.940 : en:Глава 19
01:33:15.965 : en:Глава 20


Релиз-группа:
КУБКИ

СТАЖ

МЕДАЛИ
Награды:56

За активную помощь проекту (4) Лучший по количеству кубков (16) За отличные раздачи и качество (13) За подробное оформление раздач (1) За отличные комментарии (15) Почётный форумчанин (3) Верный Сид (1) За участие в конкурсах/играх (2)

Аватара пользователя
СССР
al1ksandr
Главный Модератор-Корсар
  • Торрент
Для скачивания торрента необходимо зарегистрироваться или войти на трекер.

Вернуться в Зарубежное кино (1991-2000 / HD Video)



Uptime по данным Ping-Admin.Ru - сервиса мониторинга доступности сайтов
Рейтинг@Mail.ru