logo
Международный русскоязычный
торрент-трекер
Menu
"Бунт на корабле", за скачанные торрент-файлы дублоны не снимаются. Возможность оплачена пользователем filbi1976.
Doublon
Поделиться с друзьями: 
Голосуй за Корсар и получи 500 дублонов
Рейтинг торрент трекеров - UpTracker.ru

Константин Никольский - Дискография (1993-2011, Rock, FLAC)

Сообщение Kwinto » 28 ноя 2016, 02:05

Константин Никольский / Дискография (9 CD)

Жанр: Rock
Страна-производитель диска: Россия, Франция
Год издания: 1993-2011
Страна: СССР-Россия
Аудиокодек: FLAC (*.flac)
Тип рипа: image+.cue
Битрейт аудио: lossless
Источник (релизер): Собственные диски
Наличие сканов в содержимом раздачи: да
Код: Выделить всё
[imgright]http://i53.fastpic.ru/big/2013/0101/cb/e6d32e4bc33b2f91ad51d7902c209dcb.jpg[/imgright][b]Год издания[/b]: 2011
[b]Издатель (лейбл)[/b]: Студия А
[b]Номер по каталогу[/b]: SA-088
[b]Продолжительность[/b]: 31:33
[b]Треклист[/b]:
01. Один взгляд назад
02. Мой друг - художник и поэт
03. Ночная птица
04. Поиграй со мной гроза
05. Счастлив певец
06. Кружится, кружится карусель
07. Зеркало мира
Exact Audio Copy V1.0 beta 3 from 29. August 2011

Отчёт EAC об извлечении, выполненном 29. ноября 2012, 23:12

Фестиваль (К. Никольский) / Счастлив певец

Дисковод: TS8XDVDRTranscend Adapter: 2 ID: 0

Режим чтения : Достоверность
Использование точного потока : Да
Отключение кэша аудио : Да
Использование указателей C2 : Нет

Коррекция смещения при чтении : 6
Способность читать области Lead-in и Lead-out : Нет
Заполнение пропущенных сэмплов тишиной : Да
Удаление блоков с тишиной в начале и конце : Нет
При вычислениях CRC использовались нулевые сэмплы : Да
Интерфейс : Встроенный Win32-интерфейс для Win NT/2000

Выходной формат : Пользовательский кодировщик
Выбранный битрейт : 128 kBit/s
Качество : Высокий
Добавление ID3-тега : Нет
Утилита сжатия : C:\Program Files\Exact Audio Copy\FLAC\FLAC.EXE
Дополнительные параметры : -V -8 -T "Date=%year%" -T "Genre=%genre%" %source%

TOC извлечённого CD

Трек | Старт | Длительность | Начальный сектор | Конечный сектор
---------------------------------------------------------------------
1 | 0:00.00 | 4:00.55 | 0 | 18054
2 | 4:00.55 | 6:13.07 | 18055 | 46036
3 | 10:13.62 | 4:40.50 | 46037 | 67086
4 | 14:54.37 | 3:47.74 | 67087 | 84185
5 | 18:42.36 | 3:51.54 | 84186 | 101564
6 | 22:34.15 | 3:44.21 | 101565 | 118385
7 | 26:18.36 | 5:14.44 | 118386 | 141979

Характеристики диапазона извлечения и сообщения об ошибках

Выбранный диапазон

Имя файла C:\Documents and Settings\Пользователь\Мои документы\Раздачи на torrents.ru\Фестиваль (К. Никольский) - Счастлив певец.wav

Пиковый уровень 96.3 %
Скорость извлечения 1.5 X
Качество диапазона 99.9 %
CRC теста 42591174
CRC копии 42591174
Копирование... OK

Ошибок не произошло

AccurateRip: сводка

Трек 1 отсутствует в базе данных
Трек 2 отсутствует в базе данных
Трек 3 отсутствует в базе данных
Трек 4 отсутствует в базе данных
Трек 5 отсутствует в базе данных
Трек 6 отсутствует в базе данных
Трек 7 отсутствует в базе данных

Ни одного трека нет в базе AccurateRip

Конец отчёта

==== Контрольная сумма отчёта BCBFC414EA6E207EB133000C93EADCD13835178E69A572391EB7ECAFD0C7A96C ====
Код: Выделить всё
REM GENRE Rock
REM DATE 2011
REM DISCID 52076507
REM COMMENT "ExactAudioCopy v1.0b3"
PERFORMER "Фестиваль (К. Никольский)"
TITLE "Счастлив певец"
FILE "Фестиваль (К. Никольский) - Счастлив певец.flac" WAVE
  TRACK 01 AUDIO
    TITLE "Один взгляд назад"
    PERFORMER "Фестиваль (К. Никольский)"
    ISRC 000000000000
    INDEX 01 00:00:00
  TRACK 02 AUDIO
    TITLE "Мой друг - художник и поэт"
    PERFORMER "Фестиваль (К. Никольский)"
    ISRC 000000000000
    INDEX 01 04:00:55
  TRACK 03 AUDIO
    TITLE "Ночная птица"
    PERFORMER "Фестиваль (К. Никольский)"
    ISRC 000000000000
    INDEX 01 10:13:62
  TRACK 04 AUDIO
    TITLE "Поиграй со мной гроза"
    PERFORMER "Фестиваль (К. Никольский)"
    ISRC 000000000000
    INDEX 01 14:54:37
  TRACK 05 AUDIO
    TITLE "Счастлив певец"
    PERFORMER "Фестиваль (К. Никольский)"
    ISRC 000000000000
    INDEX 01 18:42:36
  TRACK 06 AUDIO
    TITLE "Кружится, кружится карусель"
    PERFORMER "Фестиваль (К. Никольский)"
    ISRC 000000000000
    INDEX 01 22:34:15
  TRACK 07 AUDIO
    TITLE "Зеркало мира"
    PERFORMER "Фестиваль (К. Никольский)"
    ISRC 000000000000
    INDEX 01 26:18:36
Код: Выделить всё
[imgright]http://i54.fastpic.ru/big/2013/0101/08/2ff5392399320bddea2012e2e60afc08.jpg[/imgright][b]Год издания[/b]: 1993
[b]Издатель (лейбл)[/b]: DL-Lota Production
[b]Номер по каталогу[/b]: DL-MDC 002
[b]Продолжительность[/b]: 46:04
[b]Треклист[/b]:
01. Intro
02. Растаяла дымка сквозная
03. Ещё не сгустились тени
04. От любви к любви
05. Спи, душа моя
06. Без цели и без расчёта
07. Прошедший день
08. Не уходи, мой друг
09. Я бреду по бездорожью
Exact Audio Copy V1.0 beta 3 from 29. August 2011

Отчёт EAC об извлечении, выполненном 29. декабря 2012, 12:42

Константин Никольский / Я бреду по бездорожью...

Дисковод: TS8XDVDRTranscend Adapter: 2 ID: 0

Режим чтения : Достоверность
Использование точного потока : Да
Отключение кэша аудио : Да
Использование указателей C2 : Нет

Коррекция смещения при чтении : 6
Способность читать области Lead-in и Lead-out : Нет
Заполнение пропущенных сэмплов тишиной : Да
Удаление блоков с тишиной в начале и конце : Нет
При вычислениях CRC использовались нулевые сэмплы : Да
Интерфейс : Встроенный Win32-интерфейс для Win NT/2000

Выходной формат : Пользовательский кодировщик
Выбранный битрейт : 128 kBit/s
Качество : Высокий
Добавление ID3-тега : Нет
Утилита сжатия : C:\Program Files\Exact Audio Copy\FLAC\FLAC.EXE
Дополнительные параметры : -V -8 -T "Date=%year%" -T "Genre=%genre%" %source%

TOC извлечённого CD

Трек | Старт | Длительность | Начальный сектор | Конечный сектор
---------------------------------------------------------------------
1 | 0:00.32 | 0:54.50 | 32 | 4131
2 | 0:55.07 | 6:03.25 | 4132 | 31381
3 | 6:58.32 | 4:00.00 | 31382 | 49381
4 | 10:58.32 | 5:35.13 | 49382 | 74519
5 | 16:33.45 | 4:40.62 | 74520 | 95581
6 | 21:14.32 | 5:09.05 | 95582 | 118761
7 | 26:23.37 | 5:17.15 | 118762 | 142551
8 | 31:40.52 | 8:37.05 | 142552 | 181331
9 | 40:17.57 | 5:47.00 | 181332 | 207356

Характеристики диапазона извлечения и сообщения об ошибках

Выбранный диапазон

Имя файла C:\Documents and Settings\Пользователь\Мои документы\Раздачи на torrents.ru\Константин Никольский - Я бреду по бездорожью....wav

Пиковый уровень 86.3 %
Скорость извлечения 4.0 X
Качество диапазона 100.0 %
CRC теста 35CA9696
CRC копии 35CA9696
Копирование... OK

Ошибок не произошло

AccurateRip: сводка

Трек 1 точность не определена (достоверность 3) [981D22CA], AccurateRip вернул [41207FD6] (AR v2)
Трек 2 точность не определена (достоверность 3) [078CE2BB], AccurateRip вернул [E8D90BAF] (AR v2)
Трек 3 точность не определена (достоверность 2) [DBB33FE2], AccurateRip вернул [BD484581] (AR v2)
Трек 4 точность не определена (достоверность 2) [D511B1D4], AccurateRip вернул [13648167] (AR v2)
Трек 5 точность не определена (достоверность 2) [873B1167], AccurateRip вернул [32F0ACE0] (AR v2)
Трек 6 точность не определена (достоверность 2) [28EE1266], AccurateRip вернул [15D672AA] (AR v2)
Трек 7 точность не определена (достоверность 3) [FEBDCF82], AccurateRip вернул [EC5C8282] (AR v2)
Трек 8 точность не определена (достоверность 3) [A5B607DC], AccurateRip вернул [0085D5C0] (AR v2)
Трек 9 точность не определена (достоверность 2) [E556B990], AccurateRip вернул [2CFCE841] (AR v2)

Ни один трек не прошёл проверки на точность
В вашей базе может быть иной вариант штамповки диска

Конец отчёта

==== Контрольная сумма отчёта 7AC827A232C3E94FB533A08B183DFDD3C6650547291BC27C53D626F6AF680A73 ====
Код: Выделить всё
REM GENRE Rock
REM DATE 1991
REM DISCID 760ACC09
REM COMMENT "ExactAudioCopy v1.0b3"
PERFORMER "Константин Никольский"
TITLE "Я бреду по бездорожью..."
FILE "Константин Никольский - Я бреду по бездорожью....flac" WAVE
  TRACK 01 AUDIO
    TITLE "Intro"
    PERFORMER "Константин Никольский"
    INDEX 00 00:00:00
    INDEX 01 00:00:32
  TRACK 02 AUDIO
    TITLE "Растаяла дымка сквозная"
    PERFORMER "Константин Никольский"
    INDEX 00 00:55:04
    INDEX 01 00:55:07
  TRACK 03 AUDIO
    TITLE "Еще не сгустились тени"
    PERFORMER "Константин Никольский"
    INDEX 00 06:54:42
    INDEX 01 06:58:32
  TRACK 04 AUDIO
    TITLE "От любви к любви"
    PERFORMER "Константин Никольский"
    INDEX 00 10:55:54
    INDEX 01 10:58:32
  TRACK 05 AUDIO
    TITLE "Спи, душа моя"
    PERFORMER "Константин Никольский"
    INDEX 00 16:30:04
    INDEX 01 16:33:45
  TRACK 06 AUDIO
    TITLE "Без цели и без расчета"
    PERFORMER "Константин Никольский"
    INDEX 00 21:13:04
    INDEX 01 21:14:32
  TRACK 07 AUDIO
    TITLE "Прошедший день"
    PERFORMER "Константин Никольский"
    INDEX 00 26:21:17
    INDEX 01 26:23:37
  TRACK 08 AUDIO
    TITLE "Не уходи, мой друг"
    PERFORMER "Константин Никольский"
    INDEX 00 31:37:02
    INDEX 01 31:40:52
  TRACK 09 AUDIO
    TITLE "Я бреду по бездорожью"
    PERFORMER "Константин Никольский"
    INDEX 00 40:14:04
    INDEX 01 40:17:57
Код: Выделить всё
[imgright]http://i54.fastpic.ru/big/2013/0214/3c/a632d667c3419f828fa0a4c0ce4e313c.jpg[/imgright][b]Год издания[/b]: 2003
[b]Издатель (лейбл)[/b]: КВАДРО-ДИСК
[b]Номер по каталогу[/b]: KTL03-743
[b]Продолжительность[/b]: 55:48
[b]Треклист[/b]:
01. Intro
02. Мой друг художник и поэт
03. Я сам из тех...
04. Опять до времени отложены дела
05. Облако
06. Прошедший день
07. Когда поймёшь умом
08. Пред чертой между будущим и прошлым
09. Цветок у окна
10. Один взгляд назад (Ветерок)
11. Музыкант
12. В моей душе осадок зла
13. Голос
14. От любви к любви
15. Я бреду по бездорожью
16. Птицы белые мои
17. Ночная птица
Exact Audio Copy V1.0 beta 3 from 29. August 2011

Отчёт EAC об извлечении, выполненном 8. февраля 2013, 0:52

Константин Никольский / Живая струна - аккустический альбом (live)

Дисковод: TS8XDVDRTranscend Adapter: 2 ID: 0

Режим чтения : Достоверность
Использование точного потока : Да
Отключение кэша аудио : Да
Использование указателей C2 : Нет

Коррекция смещения при чтении : 6
Способность читать области Lead-in и Lead-out : Нет
Заполнение пропущенных сэмплов тишиной : Да
Удаление блоков с тишиной в начале и конце : Нет
При вычислениях CRC использовались нулевые сэмплы : Да
Интерфейс : Встроенный Win32-интерфейс для Win NT/2000

Выходной формат : Пользовательский кодировщик
Выбранный битрейт : 128 kBit/s
Качество : Высокий
Добавление ID3-тега : Нет
Утилита сжатия : C:\Program Files\Exact Audio Copy\FLAC\FLAC.EXE
Дополнительные параметры : -V -8 -T "Date=%year%" -T "Genre=%genre%" %source%

TOC извлечённого CD

Трек | Старт | Длительность | Начальный сектор | Конечный сектор
---------------------------------------------------------------------
1 | 0:00.00 | 0:57.07 | 0 | 4281
2 | 0:57.07 | 3:29.43 | 4282 | 19999
3 | 4:26.50 | 3:13.62 | 20000 | 34536
4 | 7:40.37 | 3:01.25 | 34537 | 48136
5 | 10:41.62 | 2:06.68 | 48137 | 57654
6 | 12:48.55 | 2:58.20 | 57655 | 71024
7 | 15:47.00 | 3:10.65 | 71025 | 85339
8 | 18:57.65 | 3:00.37 | 85340 | 98876
9 | 21:58.27 | 2:48.43 | 98877 | 111519
10 | 24:46.70 | 3:05.30 | 111520 | 125424
11 | 27:52.25 | 4:40.50 | 125425 | 146474
12 | 32:33.00 | 4:10.65 | 146475 | 165289
13 | 36:43.65 | 3:23.07 | 165290 | 180521
14 | 40:06.72 | 3:53.30 | 180522 | 198026
15 | 44:00.27 | 3:04.10 | 198027 | 211836
16 | 47:04.37 | 3:57.33 | 211837 | 229644
17 | 51:01.70 | 4:46.05 | 229645 | 251099

Характеристики диапазона извлечения и сообщения об ошибках

Выбранный диапазон

Имя файла C:\Documents and Settings\Пользователь\Мои документы\Раздачи на torrents.ru\Константин Никольский - Живая струна - аккустический альбом (live).wav

Пиковый уровень 68.2 %
Скорость извлечения 1.7 X
Качество диапазона 100.0 %
CRC теста 8A148C94
CRC копии 8A148C94
Копирование... OK

Ошибок не произошло

AccurateRip: сводка

Трек 1 : извлечено точно (доверие 2) [4804747A] (AR v1)
Трек 2 : извлечено точно (доверие 2) [B0B9C112] (AR v1)
Трек 3 : извлечено точно (доверие 2) [B038FC84] (AR v1)
Трек 4 : извлечено точно (доверие 2) [ED5D3FFE] (AR v1)
Трек 5 : извлечено точно (доверие 2) [C3097043] (AR v1)
Трек 6 : извлечено точно (доверие 2) [14465579] (AR v1)
Трек 7 : извлечено точно (доверие 2) [4B986AFB] (AR v1)
Трек 8 : извлечено точно (доверие 2) [A667A37E] (AR v1)
Трек 9 : извлечено точно (доверие 2) [C059FFC0] (AR v1)
Трек 10 : извлечено точно (доверие 2) [7B5697FD] (AR v1)
Трек 11 : извлечено точно (доверие 2) [E61DE4FD] (AR v1)
Трек 12 : извлечено точно (доверие 2) [CF70C708] (AR v1)
Трек 13 : извлечено точно (доверие 2) [20E330B0] (AR v1)
Трек 14 : извлечено точно (доверие 2) [C89EB2DB] (AR v1)
Трек 15 : извлечено точно (доверие 2) [38D247DC] (AR v1)
Трек 16 : извлечено точно (доверие 2) [6ED8BE63] (AR v1)
Трек 17 : извлечено точно (доверие 2) [5C8D7A56] (AR v1)

Все треки извлечены точно

Конец отчёта

==== Контрольная сумма отчёта 4FF070266BCAC140A17C16A504246200F90DF5BFF4E6BF73447F21E041630209 ====
Код: Выделить всё
REM GENRE Rock
REM DATE 2003
REM DISCID EF0D1411
REM COMMENT "ExactAudioCopy v1.0b3"
CATALOG 0000000000000
PERFORMER "Константин Никольский"
TITLE "Живая струна - аккустический альбом (live)"
FILE "Константин Никольский - Живая струна - аккустический альбом (live).flac" WAVE
  TRACK 01 AUDIO
    TITLE "Intro"
    PERFORMER "Константин Никольский"
    INDEX 01 00:00:00
  TRACK 02 AUDIO
    TITLE "Мой друг художник и поэт"
    PERFORMER "Константин Никольский"
    INDEX 01 00:57:07
  TRACK 03 AUDIO
    TITLE "Я сам из тех..."
    PERFORMER "Константин Никольский"
    INDEX 01 04:26:50
  TRACK 04 AUDIO
    TITLE "Опять до времени отложены дела"
    PERFORMER "Константин Никольский"
    INDEX 01 07:40:37
  TRACK 05 AUDIO
    TITLE "Облако"
    PERFORMER "Константин Никольский"
    INDEX 01 10:41:62
  TRACK 06 AUDIO
    TITLE "Прошедший день"
    PERFORMER "Константин Никольский"
    INDEX 01 12:48:55
  TRACK 07 AUDIO
    TITLE "Когда поймёшь умом"
    PERFORMER "Константин Никольский"
    INDEX 01 15:47:00
  TRACK 08 AUDIO
    TITLE "Пред чертой между будущим и прошлым"
    PERFORMER "Константин Никольский"
    INDEX 01 18:57:65
  TRACK 09 AUDIO
    TITLE "Цветок у окна"
    PERFORMER "Константин Никольский"
    INDEX 01 21:58:27
  TRACK 10 AUDIO
    TITLE "Один взгляд назад (Ветерок)"
    PERFORMER "Константин Никольский"
    INDEX 01 24:46:70
  TRACK 11 AUDIO
    TITLE "Музыкант"
    PERFORMER "Константин Никольский"
    INDEX 01 27:52:25
  TRACK 12 AUDIO
    TITLE "В моей душе осадок зла"
    PERFORMER "Константин Никольский"
    INDEX 01 32:33:00
  TRACK 13 AUDIO
    TITLE "Голос"
    PERFORMER "Константин Никольский"
    INDEX 01 36:43:65
  TRACK 14 AUDIO
    TITLE "От любви к любви"
    PERFORMER "Константин Никольский"
    INDEX 01 40:06:72
  TRACK 15 AUDIO
    TITLE "Я бреду по бездорожью"
    PERFORMER "Константин Никольский"
    INDEX 01 44:00:27
  TRACK 16 AUDIO
    TITLE "Птицы белые мои"
    PERFORMER "Константин Никольский"
    INDEX 01 47:04:37
  TRACK 17 AUDIO
    TITLE "Ночная птица"
    PERFORMER "Константин Никольский"
    INDEX 01 51:01:70
Код: Выделить всё
[imgright]http://i47.fastpic.ru/big/2013/0429/c4/e91c0456f2c8d95057fc6966792bfbc4.jpg[/imgright][b]Год издания[/b]: 1996
[b]Издатель (лейбл)[/b]: D.L.Lota Production
[b]Номер по каталогу[/b]: DL-001
[b]Продолжительность[/b]: 47:48
[b]Треклист[/b]:
01. Зеркало мира
02. Один взгляд назад
03. Ночная птица
04. Мой друг художник и поэт
05. В моей душе осадок зла
06. Птицы белые мои
07. Музыкант
08. Я сам из тех...
09. Воскресенье
10. Когда поймёшь умом...
Exact Audio Copy V1.0 beta 3 from 29. August 2011

Отчёт EAC об извлечении, выполненном 29. апреля 2013, 21:52

Константин Никольский / Один взгляд назад

Дисковод: TS8XDVDRTranscend Adapter: 1 ID: 0

Режим чтения : Достоверность
Использование точного потока : Да
Отключение кэша аудио : Да
Использование указателей C2 : Нет

Коррекция смещения при чтении : 6
Способность читать области Lead-in и Lead-out : Нет
Заполнение пропущенных сэмплов тишиной : Да
Удаление блоков с тишиной в начале и конце : Нет
При вычислениях CRC использовались нулевые сэмплы : Да
Интерфейс : Встроенный Win32-интерфейс для Win NT/2000

Выходной формат : Пользовательский кодировщик
Выбранный битрейт : 128 kBit/s
Качество : Высокий
Добавление ID3-тега : Нет
Утилита сжатия : C:\Program Files (x86)\Exact Audio Copy\Flac\flac.exe
Дополнительные параметры : -V -8 -T "Date=%year%" -T "Genre=%genre%" %source%

TOC извлечённого CD

Трек | Старт | Длительность | Начальный сектор | Конечный сектор
---------------------------------------------------------------------
1 | 0:00.30 | 5:11.45 | 30 | 23399
2 | 5:12.00 | 3:41.15 | 23400 | 39989
3 | 8:53.15 | 4:22.65 | 39990 | 59704
4 | 13:16.05 | 6:09.30 | 59705 | 87409
5 | 19:25.35 | 4:52.45 | 87410 | 109354
6 | 24:18.05 | 4:43.40 | 109355 | 130619
7 | 29:01.45 | 5:21.10 | 130620 | 154704
8 | 34:22.55 | 3:58.60 | 154705 | 172614
9 | 38:21.40 | 6:26.50 | 172615 | 201614
10 | 44:48.15 | 3:00.15 | 201615 | 215129

Характеристики диапазона извлечения и сообщения об ошибках

Выбранный диапазон

Имя файла C:\Users\Public\Константин Никольский - Один взгляд назад.wav

Пиковый уровень 100.0 %
Скорость извлечения 4.2 X
Качество диапазона 100.0 %
CRC теста 92E38760
CRC копии 92E38760
Копирование... OK

Ошибок не произошло

AccurateRip: сводка

Трек 1 : извлечено точно (доверие 1) [67085F93] (AR v2)
Трек 2 : извлечено точно (доверие 1) [201F643B] (AR v2)
Трек 3 : извлечено точно (доверие 1) [AD493557] (AR v2)
Трек 4 : извлечено точно (доверие 1) [4D2AF8FE] (AR v2)
Трек 5 : извлечено точно (доверие 1) [ADD75F15] (AR v2)
Трек 6 : извлечено точно (доверие 1) [D8FA552C] (AR v2)
Трек 7 : извлечено точно (доверие 1) [4C75C2A5] (AR v2)
Трек 8 : извлечено точно (доверие 1) [A1FA5D4D] (AR v2)
Трек 9 : извлечено точно (доверие 1) [7835EC45] (AR v2)
Трек 10 : извлечено точно (доверие 1) [17904785] (AR v2)

Все треки извлечены точно

Конец отчёта

==== Контрольная сумма отчёта BB7B886D1B2459961441EAE445BEE2B693541915EB233FD451EE3F92F7C0337C ====
Код: Выделить всё
REM GENRE Rock
REM DATE 1996
REM DISCID 7D0B340A
REM COMMENT "ExactAudioCopy v1.0b3"
PERFORMER "Константин Никольский"
TITLE "Один взгляд назад"
FILE "Константин Никольский - Один взгляд назад.flac" WAVE
  TRACK 01 AUDIO
    TITLE "Зеркало мира"
    PERFORMER "Константин Никольский"
    FLAGS DCP
    INDEX 00 00:00:00
    INDEX 01 00:00:30
  TRACK 02 AUDIO
    TITLE "Один взгляд назад"
    PERFORMER "Константин Никольский"
    FLAGS DCP
    INDEX 01 05:12:00
  TRACK 03 AUDIO
    TITLE "Ночная птица"
    PERFORMER "Константин Никольский"
    FLAGS DCP
    INDEX 01 08:53:15
  TRACK 04 AUDIO
    TITLE "Мой друг художник и поэт"
    PERFORMER "Константин Никольский"
    FLAGS DCP
    INDEX 01 13:16:05
  TRACK 05 AUDIO
    TITLE "В моей душе осадок зла"
    PERFORMER "Константин Никольский"
    FLAGS DCP
    INDEX 01 19:25:35
  TRACK 06 AUDIO
    TITLE "Птицы белые мои"
    PERFORMER "Константин Никольский"
    FLAGS DCP
    INDEX 01 24:18:05
  TRACK 07 AUDIO
    TITLE "Музыкант"
    PERFORMER "Константин Никольский"
    FLAGS DCP
    INDEX 01 29:01:45
  TRACK 08 AUDIO
    TITLE "Я сам из тех ..."
    PERFORMER "Константин Никольский"
    FLAGS DCP
    INDEX 01 34:22:55
  TRACK 09 AUDIO
    TITLE "Воскресенье"
    PERFORMER "Константин Никольский"
    FLAGS DCP
    INDEX 01 38:21:40
  TRACK 10 AUDIO
    TITLE "Когда поймешь умом ..."
    PERFORMER "Константин Никольский"
    FLAGS DCP
    INDEX 01 44:48:15
Код: Выделить всё
[imgright]http://i51.fastpic.ru/big/2013/0101/3b/8578e7efad9ec5ef4fe4e8fdd6e2eb3b.jpg[/imgright][b]Год издания[/b]: 2001
[b]Издатель (лейбл)[/b]: Bomba Music
[b]Номер по каталогу[/b]: BoMB 02-02/03
Продолжительность: 49:22
Треклист:
01. Я думал о многом и разном...
02. Четыре дерева
03. Голос
04. Растаяла дымка сквозная...
05. Ещё не сгустились тени
06. От любви к любви
07. Прошедший день
08. Я бреду по бездорожью
09. Песня о песне
10. Пред чертой
11. Цветок у окна
Exact Audio Copy V1.0 beta 3 from 29. August 2011

Отчёт EAC об извлечении, выполненном 31. декабря 2012, 0:10

Константин Никольский / 50 Юбилейный концерт в ГЦКЗ "Россия"

Дисковод: TS8XDVDRTranscend Adapter: 2 ID: 0

Режим чтения : Достоверность
Использование точного потока : Да
Отключение кэша аудио : Да
Использование указателей C2 : Нет

Коррекция смещения при чтении : 6
Способность читать области Lead-in и Lead-out : Нет
Заполнение пропущенных сэмплов тишиной : Да
Удаление блоков с тишиной в начале и конце : Нет
При вычислениях CRC использовались нулевые сэмплы : Да
Интерфейс : Встроенный Win32-интерфейс для Win NT/2000

Выходной формат : Пользовательский кодировщик
Выбранный битрейт : 128 kBit/s
Качество : Высокий
Добавление ID3-тега : Нет
Утилита сжатия : C:\Program Files\Exact Audio Copy\FLAC\FLAC.EXE
Дополнительные параметры : -V -8 -T "Date=%year%" -T "Genre=%genre%" %source%

TOC извлечённого CD

Трек | Старт | Длительность | Начальный сектор | Конечный сектор
---------------------------------------------------------------------
1 | 0:00.00 | 3:47.72 | 0 | 17096
2 | 3:47.72 | 2:50.09 | 17097 | 29855
3 | 6:38.06 | 4:43.37 | 29856 | 51117
4 | 11:21.43 | 4:39.29 | 51118 | 72071
5 | 16:00.72 | 4:16.03 | 72072 | 91274
6 | 20:17.00 | 5:06.33 | 91275 | 114257
7 | 25:23.33 | 4:34.35 | 114258 | 134842
8 | 29:57.68 | 5:50.10 | 134843 | 161102
9 | 35:48.03 | 5:40.74 | 161103 | 186676
10 | 41:29.02 | 4:37.00 | 186677 | 207451
11 | 46:06.02 | 3:16.20 | 207452 | 222171

Характеристики диапазона извлечения и сообщения об ошибках

Выбранный диапазон

Имя файла C:\Documents and Settings\Пользователь\Мои документы\Раздачи на torrents.ru\Константин Никольский - 50 Юбилейный концерт в ГЦКЗ ''Россия''.wav

Пиковый уровень 98.8 %
Скорость извлечения 1.5 X
Качество диапазона 100.0 %
CRC теста BE0036FA
CRC копии BE0036FA
Копирование... OK

Ошибок не произошло

AccurateRip: сводка

Трек 1 отсутствует в базе данных
Трек 2 отсутствует в базе данных
Трек 3 отсутствует в базе данных
Трек 4 отсутствует в базе данных
Трек 5 отсутствует в базе данных
Трек 6 отсутствует в базе данных
Трек 7 отсутствует в базе данных
Трек 8 отсутствует в базе данных
Трек 9 отсутствует в базе данных
Трек 10 отсутствует в базе данных
Трек 11 отсутствует в базе данных

Ни одного трека нет в базе AccurateRip

Конец отчёта

==== Контрольная сумма отчёта 365857B998556163DE66B10051E13FD8BC92BFD34BDC6E64F5A63670944075F2 ====
Код: Выделить всё
REM GENRE RocK
REM DATE 2001
REM DISCID 980B920B
REM COMMENT "ExactAudioCopy v1.0b3"
PERFORMER "Константин Никольский"
TITLE "50 Юбилейный концерт в ГЦКЗ 'Россия'"
FILE "Константин Никольский - 50 Юбилейный концерт в ГЦКЗ ''Россия''.flac" WAVE
  TRACK 01 AUDIO
    TITLE "Я думал о многом и разном..."
    PERFORMER "Константин Никольский"
    INDEX 01 00:00:00
  TRACK 02 AUDIO
    TITLE "Четыре дерева"
    PERFORMER "Константин Никольский"
    INDEX 01 03:47:72
  TRACK 03 AUDIO
    TITLE "Голос"
    PERFORMER "Константин Никольский"
    INDEX 01 06:38:06
  TRACK 04 AUDIO
    TITLE "Растаяла дымка сквозная..."
    PERFORMER "Константин Никольский"
    INDEX 01 11:21:43
  TRACK 05 AUDIO
    TITLE "Ещё не сгустились тени"
    PERFORMER "Константин Никольский"
    INDEX 01 16:00:72
  TRACK 06 AUDIO
    TITLE "От любви к любви"
    PERFORMER "Константин Никольский"
    INDEX 01 20:17:00
  TRACK 07 AUDIO
    TITLE "Прошедший день"
    PERFORMER "Константин Никольский"
    INDEX 01 25:23:33
  TRACK 08 AUDIO
    TITLE "Я бреду по бездорожью"
    PERFORMER "Константин Никольский"
    INDEX 01 29:57:68
  TRACK 09 AUDIO
    TITLE "Песня о песне"
    PERFORMER "Константин Никольский"
    INDEX 01 35:48:03
  TRACK 10 AUDIO
    TITLE "Пред чертой"
    PERFORMER "Константин Никольский"
    INDEX 01 41:29:02
  TRACK 11 AUDIO
    TITLE "Цветок у окна"
    PERFORMER "Константин Никольский"
    INDEX 01 46:06:02
Код: Выделить всё
[b]Продолжительность[/b]: 46:33
[b]Треклист[/b]:
01. Музыкант
02. В моей душе осадок зла
03. Один взгляд назад
04. Ночная птица
05. Мой друг художник и поэт
06. Я сам из тех...
07. Птицы белые мои
08. Ветер случайных удач
09. Когда поймёшь умом...
Exact Audio Copy V1.0 beta 3 from 29. August 2011

Отчёт EAC об извлечении, выполненном 1. января 2013, 19:36

Константин Никольский / 50 Юбилейный концерт в ГЦКЗ "Россия"

Дисковод: TS8XDVDRTranscend Adapter: 2 ID: 0

Режим чтения : Достоверность
Использование точного потока : Да
Отключение кэша аудио : Да
Использование указателей C2 : Нет

Коррекция смещения при чтении : 6
Способность читать области Lead-in и Lead-out : Нет
Заполнение пропущенных сэмплов тишиной : Да
Удаление блоков с тишиной в начале и конце : Нет
При вычислениях CRC использовались нулевые сэмплы : Да
Интерфейс : Встроенный Win32-интерфейс для Win NT/2000

Выходной формат : Пользовательский кодировщик
Выбранный битрейт : 128 kBit/s
Качество : Высокий
Добавление ID3-тега : Нет
Утилита сжатия : C:\Program Files\Exact Audio Copy\FLAC\FLAC.EXE
Дополнительные параметры : -V -8 -T "Date=%year%" -T "Genre=%genre%" %source%

TOC извлечённого CD

Трек | Старт | Длительность | Начальный сектор | Конечный сектор
---------------------------------------------------------------------
1 | 0:00.00 | 4:45.54 | 0 | 21428
2 | 4:45.54 | 5:01.60 | 21429 | 44063
3 | 9:47.39 | 3:48.65 | 44064 | 61228
4 | 13:36.29 | 4:35.16 | 61229 | 81869
5 | 18:11.45 | 6:33.00 | 81870 | 111344
6 | 24:44.45 | 3:41.10 | 111345 | 127929
7 | 28:25.55 | 4:41.15 | 127930 | 149019
8 | 33:06.70 | 6:52.08 | 149020 | 179927
9 | 39:59.03 | 6:34.05 | 179928 | 209482

Характеристики диапазона извлечения и сообщения об ошибках

Выбранный диапазон

Имя файла C:\Documents and Settings\Пользователь\Мои документы\Раздачи на torrents.ru\Константин Никольский - 50 Юбилейный концерт в ГЦКЗ ''Россия''.wav

Пиковый уровень 98.8 %
Скорость извлечения 1.5 X
Качество диапазона 99.9 %
CRC теста B1DD9C46
CRC копии B1DD9C46
Копирование... OK

Ошибок не произошло

AccurateRip: сводка

Трек 1 отсутствует в базе данных
Трек 2 отсутствует в базе данных
Трек 3 отсутствует в базе данных
Трек 4 отсутствует в базе данных
Трек 5 отсутствует в базе данных
Трек 6 отсутствует в базе данных
Трек 7 отсутствует в базе данных
Трек 8 отсутствует в базе данных
Трек 9 отсутствует в базе данных

Ни одного трека нет в базе AccurateRip

Конец отчёта

==== Контрольная сумма отчёта 0900BD49C75DE9EF77C4AC35BFAEA98E33B856B06C97C49D980D2843DCA37682 ====
Код: Выделить всё
REM GENRE Rock
REM DATE 2001
REM DISCID 8A0AE909
REM COMMENT "ExactAudioCopy v1.0b3"
PERFORMER "Константин Никольский"
TITLE "50 Юбилейный концерт в ГЦКЗ 'Россия'"
FILE "Константин Никольский - 50 Юбилейный концерт в ГЦКЗ ''Россия''.flac" WAVE
  TRACK 01 AUDIO
    TITLE "Музыкант"
    PERFORMER "Константин Никольский"
    INDEX 01 00:00:00
  TRACK 02 AUDIO
    TITLE "В моей душе осадок зла"
    PERFORMER "Константин Никольский"
    INDEX 01 04:45:54
  TRACK 03 AUDIO
    TITLE "Один взгляд назад"
    PERFORMER "Константин Никольский"
    INDEX 01 09:47:39
  TRACK 04 AUDIO
    TITLE "Ночная птица"
    PERFORMER "Константин Никольский"
    INDEX 01 13:36:29
  TRACK 05 AUDIO
    TITLE "Мой друг художник и поэт"
    PERFORMER "Константин Никольский"
    INDEX 01 18:11:45
  TRACK 06 AUDIO
    TITLE "Я сам из тех..."
    PERFORMER "Константин Никольский"
    INDEX 01 24:44:45
  TRACK 07 AUDIO
    TITLE "Птицы белые мои"
    PERFORMER "Константин Никольский"
    INDEX 01 28:25:55
  TRACK 08 AUDIO
    TITLE "Ветер случайных удач"
    PERFORMER "Константин Никольский"
    INDEX 01 33:06:70
  TRACK 09 AUDIO
    TITLE "Когда поймёшь умом..."
    PERFORMER "Константин Никольский"
    INDEX 01 39:59:03
Код: Выделить всё
[imgright]http://i51.fastpic.ru/big/2013/0101/e1/f6646e96e1a90321dcadc010a37c86e1.jpg[/imgright][b]Год издания[/b]: 2001
[b]Издатель (лейбл)[/b]: Студия "Союз"
[b]Номер по каталогу[/b]: SZCD 1253-01
[b]Продолжительность[/b]: 77:39
[b]Треклист[/b]:
01. Intro
02. Музыкант
03. Один взгляд назад
04. Птицы белые мои
05. Когда поймёшь умом...
06. В моей душе осадок зла
07. Мой друг художник и поэт
08. Зеркало мира
09. Спи, душа моя
10. Ночная птица
11. От любви к любви
12. Растаяла дымка сквозная
13. Я сам из тех...
14. Прошедший день
15. Я бреду по бездорожью
16. Не уходи, мой друг
Exact Audio Copy V1.0 beta 3 from 29. August 2011

Отчёт EAC об извлечении, выполненном 27. декабря 2012, 22:40

Константин Никольский / Музыкант (лучшие песни)

Дисковод: TS8XDVDRTranscend Adapter: 2 ID: 0

Режим чтения : Достоверность
Использование точного потока : Да
Отключение кэша аудио : Да
Использование указателей C2 : Нет

Коррекция смещения при чтении : 6
Способность читать области Lead-in и Lead-out : Нет
Заполнение пропущенных сэмплов тишиной : Да
Удаление блоков с тишиной в начале и конце : Нет
При вычислениях CRC использовались нулевые сэмплы : Да
Интерфейс : Встроенный Win32-интерфейс для Win NT/2000

Выходной формат : Пользовательский кодировщик
Выбранный битрейт : 128 kBit/s
Качество : Высокий
Добавление ID3-тега : Нет
Утилита сжатия : C:\Program Files\Exact Audio Copy\FLAC\FLAC.EXE
Дополнительные параметры : -V -8 -T "Date=%year%" -T "Genre=%genre%" %source%

TOC извлечённого CD

Трек | Старт | Длительность | Начальный сектор | Конечный сектор
---------------------------------------------------------------------
1 | 0:00.01 | 0:50.36 | 1 | 3786
2 | 0:50.37 | 5:19.33 | 3787 | 27744
3 | 6:09.70 | 3:41.17 | 27745 | 44336
4 | 9:51.12 | 4:41.64 | 44337 | 65475
5 | 14:33.01 | 2:56.29 | 65476 | 78704
6 | 17:29.30 | 4:50.44 | 78705 | 100498
7 | 22:19.74 | 6:08.16 | 100499 | 128114
8 | 28:28.15 | 5:10.30 | 128115 | 151394
9 | 33:38.45 | 4:39.71 | 151395 | 172390
10 | 38:18.41 | 4:22.15 | 172391 | 192055
11 | 42:40.56 | 5:32.43 | 192056 | 216998
12 | 48:13.24 | 5:59.51 | 216999 | 243974
13 | 54:13.00 | 3:57.42 | 243975 | 261791
14 | 58:10.42 | 5:13.64 | 261792 | 285330
15 | 63:24.31 | 5:44.70 | 285331 | 311200
16 | 69:09.26 | 8:30.39 | 311201 | 349489

Характеристики диапазона извлечения и сообщения об ошибках

Выбранный диапазон

Имя файла C:\Documents and Settings\Пользователь\Мои документы\Раздачи на torrents.ru\Константин Никольский - Музыкант (лучшие песни).wav

Пиковый уровень 100.0 %
Скорость извлечения 1.8 X
Качество диапазона 100.0 %
CRC теста EB14E5D5
CRC копии EB14E5D5
Копирование... OK

Ошибок не произошло

AccurateRip: сводка

Трек 1 точность не определена (достоверность 5) [94C87930], AccurateRip вернул [1252AF6D] (AR v2)
Трек 2 точность не определена (достоверность 4) [B6EE47F7], AccurateRip вернул [E8DEA321] (AR v2)
Трек 3 точность не определена (достоверность 4) [E752999B], AccurateRip вернул [4A635065] (AR v2)
Трек 4 точность не определена (достоверность 4) [9949C764], AccurateRip вернул [6B6AED38] (AR v2)
Трек 5 точность не определена (достоверность 5) [381DA663], AccurateRip вернул [99F6BC13] (AR v2)
Трек 6 точность не определена (достоверность 5) [2E97AF88], AccurateRip вернул [55E7B089] (AR v2)
Трек 7 точность не определена (достоверность 4) [58308408], AccurateRip вернул [360FF6CD] (AR v2)
Трек 8 точность не определена (достоверность 4) [F6F661F1], AccurateRip вернул [4FB2F438] (AR v2)
Трек 9 точность не определена (достоверность 5) [E156EBF4], AccurateRip вернул [CA4D1F30] (AR v2)
Трек 10 точность не определена (достоверность 4) [DAAB27A3], AccurateRip вернул [AD952A9D] (AR v2)
Трек 11 точность не определена (достоверность 4) [BCE692F8], AccurateRip вернул [C0D05740] (AR v2)
Трек 12 точность не определена (достоверность 4) [A4A337EA], AccurateRip вернул [BCAD343D] (AR v2)
Трек 13 точность не определена (достоверность 4) [F75CF99B], AccurateRip вернул [B63E18FB] (AR v2)
Трек 14 точность не определена (достоверность 4) [D14E5DBD], AccurateRip вернул [209954A2] (AR v2)
Трек 15 точность не определена (достоверность 4) [714BA6D6], AccurateRip вернул [A2375AD0] (AR v2)
Трек 16 точность не определена (достоверность 4) [B7E1D78C], AccurateRip вернул [74286A8F] (AR v2)

Ни один трек не прошёл проверки на точность
В вашей базе может быть иной вариант штамповки диска

Конец отчёта

==== Контрольная сумма отчёта 9A4FE088BBCA7488C8C02645B3D7CA9176E9C3C389BA202E59790D4F648FC496 ====
Код: Выделить всё
REM GENRE Rock
REM DATE 2001
REM DISCID BF123310
REM COMMENT "ExactAudioCopy v1.0b3"
PERFORMER "Константин Никольский"
TITLE "Музыкант (лучшие песни)"
FILE "Константин Никольский - Музыкант (лучшие песни).flac" WAVE
  TRACK 01 AUDIO
    TITLE "Intro"
    PERFORMER "Константин Никольский"
    INDEX 00 00:00:00
    INDEX 01 00:00:01
  TRACK 02 AUDIO
    TITLE "Музыкант"
    PERFORMER "Константин Никольский"
    INDEX 00 00:48:36
    INDEX 01 00:50:37
  TRACK 03 AUDIO
    TITLE "Один взгляд назад"
    PERFORMER "Константин Никольский"
    INDEX 00 06:07:69
    INDEX 01 06:09:70
  TRACK 04 AUDIO
    TITLE "Птицы белые мои"
    PERFORMER "Константин Никольский"
    INDEX 00 09:49:11
    INDEX 01 09:51:12
  TRACK 05 AUDIO
    TITLE "Когда поймешь умом..."
    PERFORMER "Константин Никольский"
    INDEX 00 14:31:00
    INDEX 01 14:33:01
  TRACK 06 AUDIO
    TITLE "В моей душе осадок зла"
    PERFORMER "Константин Никольский"
    INDEX 00 17:27:29
    INDEX 01 17:29:30
  TRACK 07 AUDIO
    TITLE "Мой друг художник и поэт"
    PERFORMER "Константин Никольский"
    INDEX 00 22:17:73
    INDEX 01 22:19:74
  TRACK 08 AUDIO
    TITLE "Зеркало мира"
    PERFORMER "Константин Никольский"
    INDEX 00 28:26:14
    INDEX 01 28:28:15
  TRACK 09 AUDIO
    TITLE "Спи, душа моя"
    PERFORMER "Константин Никольский"
    INDEX 00 33:36:44
    INDEX 01 33:38:45
  TRACK 10 AUDIO
    TITLE "Ночная птица"
    PERFORMER "Константин Никольский"
    INDEX 00 38:16:40
    INDEX 01 38:18:41
  TRACK 11 AUDIO
    TITLE "От любви к любви"
    PERFORMER "Константин Никольский"
    INDEX 00 42:38:55
    INDEX 01 42:40:56
  TRACK 12 AUDIO
    TITLE "Растаяла дымка сквозная"
    PERFORMER "Константин Никольский"
    INDEX 00 48:11:23
    INDEX 01 48:13:24
  TRACK 13 AUDIO
    TITLE "Я сам из тех..."
    PERFORMER "Константин Никольский"
    INDEX 00 54:10:74
    INDEX 01 54:13:00
  TRACK 14 AUDIO
    TITLE "Прошедший день"
    PERFORMER "Константин Никольский"
    INDEX 00 58:08:41
    INDEX 01 58:10:42
  TRACK 15 AUDIO
    TITLE "Я бреду по бездорожью"
    PERFORMER "Константин Никольский"
    INDEX 00 63:22:30
    INDEX 01 63:24:31
  TRACK 16 AUDIO
    TITLE "Не уходи, мой друг"
    PERFORMER "Константин Никольский"
    INDEX 00 69:07:25
    INDEX 01 69:09:26
Код: Выделить всё
[imgright]http://i48.fastpic.ru/big/2013/0429/a7/3daf805be6426f016f61eab8c70be6a7.jpg[/imgright][b]Год издания[/b]: 2004
[b]Издатель (лейбл)[/b]: RDM
[b]Номер по каталогу[/b]: CD RDM 0311397
[b]Продолжительность[/b]: 75:43
[b]Треклист[/b]:
01. Мне только снится жизнь моя
02. Облако
03. Зеркало мира
04. Один взгляд назад
05. Ночная птица
06. Мой друг художник и поэт
07. Птицы белые мои
08. Музыкант
09. Я сам из тех
10. Воскресенье
11. Прошедший день
12. Я бреду по бездорожью
13. От любви к любви
14. Без цели и без расчёта
15. Растаяла дымка сквозная
Exact Audio Copy V1.0 beta 3 from 29. August 2011

Отчёт EAC об извлечении, выполненном 29. апреля 2013, 21:14

Константин Никольский / Мне только снится жизнь моя

Дисковод: TS8XDVDRTranscend Adapter: 1 ID: 0

Режим чтения : Достоверность
Использование точного потока : Да
Отключение кэша аудио : Да
Использование указателей C2 : Нет

Коррекция смещения при чтении : 6
Способность читать области Lead-in и Lead-out : Нет
Заполнение пропущенных сэмплов тишиной : Да
Удаление блоков с тишиной в начале и конце : Нет
При вычислениях CRC использовались нулевые сэмплы : Да
Интерфейс : Встроенный Win32-интерфейс для Win NT/2000

Выходной формат : Пользовательский кодировщик
Выбранный битрейт : 128 kBit/s
Качество : Высокий
Добавление ID3-тега : Нет
Утилита сжатия : C:\Program Files (x86)\Exact Audio Copy\Flac\flac.exe
Дополнительные параметры : -V -8 -T "Date=%year%" -T "Genre=%genre%" %source%

TOC извлечённого CD

Трек | Старт | Длительность | Начальный сектор | Конечный сектор
---------------------------------------------------------------------
1 | 0:00.00 | 5:26.21 | 0 | 24470
2 | 5:26.21 | 2:58.12 | 24471 | 37832
3 | 8:24.33 | 5:10.19 | 37833 | 61101
4 | 13:34.52 | 3:39.73 | 61102 | 77599
5 | 17:14.50 | 4:22.05 | 77600 | 97254
6 | 21:36.55 | 6:07.30 | 97255 | 124809
7 | 27:44.10 | 4:40.67 | 124810 | 145876
8 | 32:25.02 | 5:19.07 | 145877 | 169808
9 | 37:44.09 | 3:56.00 | 169809 | 187508
10 | 41:40.09 | 6:25.52 | 187509 | 216435
11 | 48:05.61 | 5:14.63 | 216436 | 240048
12 | 53:20.49 | 5:44.06 | 240049 | 265854
13 | 59:04.55 | 5:31.35 | 265855 | 290714
14 | 64:36.15 | 5:08.30 | 290715 | 313844
15 | 69:44.45 | 5:59.15 | 313845 | 340784

Характеристики диапазона извлечения и сообщения об ошибках

Выбранный диапазон

Имя файла C:\Users\Public\Константин Никольский - Мне только снится жизнь моя.wav

Пиковый уровень 93.3 %
Скорость извлечения 5.0 X
Качество диапазона 100.0 %
CRC теста CAD9D6F8
CRC копии CAD9D6F8
Копирование... OK

Ошибок не произошло

AccurateRip: сводка

Трек 1 отсутствует в базе данных
Трек 2 отсутствует в базе данных
Трек 3 отсутствует в базе данных
Трек 4 отсутствует в базе данных
Трек 5 отсутствует в базе данных
Трек 6 отсутствует в базе данных
Трек 7 отсутствует в базе данных
Трек 8 отсутствует в базе данных
Трек 9 отсутствует в базе данных
Трек 10 отсутствует в базе данных
Трек 11 отсутствует в базе данных
Трек 12 отсутствует в базе данных
Трек 13 отсутствует в базе данных
Трек 14 отсутствует в базе данных
Трек 15 отсутствует в базе данных

Ни одного трека нет в базе AccurateRip

Конец отчёта

==== Контрольная сумма отчёта FEFD7FD533DBB232BDE6E54FC1750C259E05DE770D75F40B2433A885BA90E17F ====
Код: Выделить всё
REM GENRE Rock
REM DATE 2004
REM DISCID E711BF0F
REM COMMENT "ExactAudioCopy v1.0b3"
PERFORMER "Константин Никольский"
TITLE "Мне только снится жизнь моя"
FILE "Константин Никольский - Мне только снится жизнь моя.flac" WAVE
  TRACK 01 AUDIO
    TITLE "Мне только снится жизнь моя"
    PERFORMER "Константин Никольский"
    INDEX 01 00:00:00
  TRACK 02 AUDIO
    TITLE "Облако"
    PERFORMER "Константин Никольский"
    INDEX 00 05:24:21
    INDEX 01 05:26:21
  TRACK 03 AUDIO
    TITLE "Зеркало мира"
    PERFORMER "Константин Никольский"
    INDEX 00 08:22:33
    INDEX 01 08:24:33
  TRACK 04 AUDIO
    TITLE "Один взгляд назад"
    PERFORMER "Константин Никольский"
    INDEX 00 13:32:52
    INDEX 01 13:34:52
  TRACK 05 AUDIO
    TITLE "Ночная птица"
    PERFORMER "Константин Никольский"
    INDEX 00 17:12:50
    INDEX 01 17:14:50
  TRACK 06 AUDIO
    TITLE "Мой друг художник и поэт"
    PERFORMER "Константин Никольский"
    INDEX 00 21:34:55
    INDEX 01 21:36:55
  TRACK 07 AUDIO
    TITLE "Птицы белые мои"
    PERFORMER "Константин Никольский"
    INDEX 00 27:42:10
    INDEX 01 27:44:10
  TRACK 08 AUDIO
    TITLE "Музыкант"
    PERFORMER "Константин Никольский"
    INDEX 00 32:23:02
    INDEX 01 32:25:02
  TRACK 09 AUDIO
    TITLE "Я сам из тех"
    PERFORMER "Константин Никольский"
    INDEX 00 37:42:09
    INDEX 01 37:44:09
  TRACK 10 AUDIO
    TITLE "Воскресенье"
    PERFORMER "Константин Никольский"
    INDEX 00 41:38:09
    INDEX 01 41:40:09
  TRACK 11 AUDIO
    TITLE "Прошедший день"
    PERFORMER "Константин Никольский"
    INDEX 00 48:03:61
    INDEX 01 48:05:61
  TRACK 12 AUDIO
    TITLE "Я бреду по бездорожью"
    PERFORMER "Константин Никольский"
    INDEX 00 53:18:49
    INDEX 01 53:20:49
  TRACK 13 AUDIO
    TITLE "От любви к любви"
    PERFORMER "Константин Никольский"
    INDEX 00 59:02:55
    INDEX 01 59:04:55
  TRACK 14 AUDIO
    TITLE "Без цели и без расчёта"
    PERFORMER "Константин Никольский"
    INDEX 00 64:34:15
    INDEX 01 64:36:15
  TRACK 15 AUDIO
    TITLE "Растаяла дымка сквозная"
    PERFORMER "Константин Никольский"
    INDEX 00 69:42:45
    INDEX 01 69:44:45
Код: Выделить всё
[imgright]http://i51.fastpic.ru/big/2013/0214/71/98ca2cbc172d42c8c8b3057cafb92671.jpg[/imgright][b]Год издания[/b]: 2007
[b]Издатель (лейбл)[/b]: Студия "Союз"
[b]Номер по каталогу[/b]: SZ-4946-07
[b]Продолжительность[/b]: 41:48
[b]Треклист[/b]:
01. Иллюзии
02. Пред чертой...
03. Только там...
04. Цветок у окна
05. Голос
06. Мне только снится жизнь моя
07. В тишине заката
08. Облако
09. Песня о песне
10. Утешь меня, судьба
Exact Audio Copy V1.0 beta 3 from 29. August 2011

Отчёт EAC об извлечении, выполненном 13. февраля 2013, 18:44

Константин Никольский / Иллюзии

Дисковод: TS8XDVDRTranscend Adapter: 2 ID: 0

Режим чтения : Достоверность
Использование точного потока : Да
Отключение кэша аудио : Да
Использование указателей C2 : Нет

Коррекция смещения при чтении : 6
Способность читать области Lead-in и Lead-out : Нет
Заполнение пропущенных сэмплов тишиной : Да
Удаление блоков с тишиной в начале и конце : Нет
При вычислениях CRC использовались нулевые сэмплы : Да
Интерфейс : Встроенный Win32-интерфейс для Win NT/2000

Выходной формат : Пользовательский кодировщик
Выбранный битрейт : 128 kBit/s
Качество : Высокий
Добавление ID3-тега : Нет
Утилита сжатия : C:\Program Files\Exact Audio Copy\FLAC\FLAC.EXE
Дополнительные параметры : -V -8 -T "Date=%year%" -T "Genre=%genre%" %source%

TOC извлечённого CD

Трек | Старт | Длительность | Начальный сектор | Конечный сектор
---------------------------------------------------------------------
1 | 0:00.00 | 4:21.30 | 0 | 19604
2 | 4:21.30 | 4:05.57 | 19605 | 38036
3 | 8:27.12 | 4:24.31 | 38037 | 57867
4 | 12:51.43 | 4:18.62 | 57868 | 77279
5 | 17:10.30 | 4:04.09 | 77280 | 95588
6 | 21:14.39 | 5:24.61 | 95589 | 119949
7 | 26:39.25 | 3:11.08 | 119950 | 134282
8 | 29:50.33 | 2:52.68 | 134283 | 147250
9 | 32:43.26 | 5:11.10 | 147251 | 170585
10 | 37:54.36 | 3:54.02 | 170586 | 188137

Характеристики диапазона извлечения и сообщения об ошибках

Выбранный диапазон

Имя файла C:\Documents and Settings\Пользователь\Мои документы\Раздачи на torrents.ru\Константин Никольский - Иллюзии.wav

Пиковый уровень 100.0 %
Скорость извлечения 4.0 X
Качество диапазона 100.0 %
CRC теста 7D923DBC
CRC копии 7D923DBC
Копирование... OK

Ошибок не произошло

AccurateRip: сводка

Трек 1 : извлечено точно (доверие 7) [38AD1026] (AR v1)
Трек 2 : извлечено точно (доверие 7) [3BA88FC3] (AR v1)
Трек 3 : извлечено точно (доверие 7) [B9C86A32] (AR v1)
Трек 4 : извлечено точно (доверие 7) [D44F2F91] (AR v1)
Трек 5 : извлечено точно (доверие 7) [0CF0D6A2] (AR v1)
Трек 6 : извлечено точно (доверие 7) [5D5506C3] (AR v1)
Трек 7 : извлечено точно (доверие 7) [21144F17] (AR v1)
Трек 8 : извлечено точно (доверие 7) [7F1F706B] (AR v1)
Трек 9 : извлечено точно (доверие 7) [66774E59] (AR v1)
Трек 10 : извлечено точно (доверие 6) [573D448B] (AR v1)

Все треки извлечены точно

Конец отчёта

==== Контрольная сумма отчёта 353D440A3D9E8B10F98668932BE86D33C732D762F1599DFC10456822DCB98BBD ====
Код: Выделить всё
REM GENRE Rock
REM DATE 2007
REM DISCID 8309CC0A
REM COMMENT "ExactAudioCopy v1.0b3"
PERFORMER "Константин Никольский"
TITLE "Иллюзии"
FILE "Константин Никольский - Иллюзии.flac" WAVE
  TRACK 01 AUDIO
    TITLE "Иллюзии"
    PERFORMER "Константин Никольский"
    INDEX 01 00:00:00
  TRACK 02 AUDIO
    TITLE "Пред чертой..."
    PERFORMER "Константин Никольский"
    INDEX 01 04:21:30
  TRACK 03 AUDIO
    TITLE "Только там..."
    PERFORMER "Константин Никольский"
    INDEX 01 08:27:12
  TRACK 04 AUDIO
    TITLE "Цветок у окна"
    PERFORMER "Константин Никольский"
    INDEX 01 12:51:43
  TRACK 05 AUDIO
    TITLE "Голос"
    PERFORMER "Константин Никольский"
    INDEX 01 17:10:30
  TRACK 06 AUDIO
    TITLE "Мне только снится жизнь моя"
    PERFORMER "Константин Никольский"
    INDEX 01 21:14:39
  TRACK 07 AUDIO
    TITLE "В тишине заката"
    PERFORMER "Константин Никольский"
    INDEX 01 26:39:25
  TRACK 08 AUDIO
    TITLE "Облако"
    PERFORMER "Константин Никольский"
    INDEX 01 29:50:33
  TRACK 09 AUDIO
    TITLE "Песня о песне"
    PERFORMER "Константин Никольский"
    INDEX 01 32:43:26
  TRACK 10 AUDIO
    TITLE "Утешь меня, судьба"
    PERFORMER "Константин Никольский"
    INDEX 01 37:54:36

Константи́н Никола́евич Нико́льский (1 февраля 1951, Москва) — российский и советский рок-музыкант и певец, поэт и композитор. Известен как сольной карьерой, так и участием в ансамблях «Атланты», «Осколки Сикорского», «Счастливое семейство», «Цветы», группа Стаса Намина, «Фестиваль», «Воскресение», «Зеркало мира». Никольского называют «голосом поколения».

Начало музыкальной жизни
В 12 лет Константин Никольский начал учиться игре на входившей в моду шестиструнной гитаре в ДК имени Чкалова (курс Генриха Сечкина). Константин с удовольствием вспоминал о том, как собрал свою первую гитару из линеек.
В 15 лет он стал ритм-гитаристом образованной незадолго до этого московской группы под названием «Крестоносцы». Лидером и солистом группы был барабанщик Александр (Алик) Сикорский. «Крестоносцы» исполняли в первую очередь песни The Beatles и The Rolling Stones. Познакомившись с Никольским, которого рекомендовал ему приятель (предыдущий ритм-гитарист покинул группу), Сикорский высоко оценил мастерство начинающего музыканта; кроме того, «голоса тонировали идеально» (А. Сикорский). «Да и песни, как вскоре выяснилось, нам нравились одни и те же. И не только Битлов и Роллингов, но и Сёчерс, и Мамаз и Папаз, и Би Джиз и т. д…» (А. Сикорский). Одобрил приход Никольского и администратор группы, старший брат лидер-гитариста Ивана Лактионова и сын известного в то время художника Сергей Лактионов (создание проекта некоторые ошибочно приписывают Юрию Айзеншпису). Так и возникла легендарная группа «Атланты», выступление которой в его школе вдохновило юного Андрея Макаревича на создание «Машины времени» (смена названия объясняется тем, что теперь у всех трёх гитаристов был очень высокий рост). Вскоре Никольский начинает писать свои первые песни («Ты девчонка хорошенькая», «Алёна», «Я думал о многом и разном»), а «Атланты» — петь на русском языке.

В 1969 году Никольский, окончивший физико-математическую школу (его родной брат стал профессиональным математиком), ушёл из института и отправился служить в армию. Потерявшие сразу трёх музыкантов «Атланты» (лидер-гитарист и бас-гитарист, поступив в Медицинский институт, стали играть в музыкальном ансамбле этого ВУЗа) были переименованы в «Осколки вертолёта Сикорского».

Служа на Украине и находясь на посту, Никольский сочиняет свою знаменитую песню «Музыкант» (первое название — «Венецианский музыкант»). Во время армейской службы были написаны антивоенная песня «Ты хотел увидеть мир» и патриотическая «Россия». Как это ни удивительно, но, когда Никольский вернулся в группу Сикорского, главным хитом был не «Музыкант» (1971), а «Ты хотел увидеть мир» (1969). «Именно во время нашего выступления было отключено электричество, концерт прерван, а запись, которую мы впервые решили сделать, испорчена. Помню, я уехал на дачу в мрачном настроении, а когда на следующий день решил прослушать запись концерта, то был поражён бешеной экспрессией песни „Ты хотел увидеть мир“, которую удалось записать целиком, а также рёвом зрителей. Впечатление было такое, как будто я по радио поймал прямую трансляцию концерта Джимми Хендрикса или кого-то в этом роде, но только не советскую команду» (А. Сикорский).

1970-е: Цветы и Фестиваль
Отслужив в армии, Никольский заканчивает курсы звукооператоров, становится звукооператором на Гостелерадио. Одновременно он, как уже говорилось, играет в группе «Осколки вертолёта Сикорского», затем переименованной в «Счастливое семейство», пишет новые песни, причем не только на собственные слова. Увлечение сборником французской поэзии в переводах Ильи Эренбурга приводит к созданию таких песен, как «Четыре дерева» (стихи народные) и «Голос» (стихи Анри де Ренье). Никольский отдаёт должное тому направлению нашей рок-музыки, которое уже начал Александр Градский и на котором будет основана знаменитая пластинка Давида Тухманова «По волне моей памяти».

В 1974 году Никольский стал ритм-гитаристом группы «Цветы», которая после выхода одной маленькой пластинки и записи второй поступила на работу в Московскую областную филармонию (по признанию А. Сикорского лидер «Цветов» Стас Намин часто и совершенно бескорыстно организовывал концерты и «Осколкам», и «Счастливому семейству»). Лидер «Цветов» знал Никольского, своего друга, ещё по институтским рок-тусовкам и его талант был очень близок к стилю, который Намин культивировал в группе, и Константин с Александром Лосевым, будучи одного роста, не только хорошо смотрелись, но и вместе пели. Однако Намин, который, к тому же, учился на филфаке МГУ, выразил недовольство большим количеством концертов и пригрозил уходом из филармонии. Эта организация зарабатывала на «Цветах» огромные деньги, организовывая гастроли по три концерта в день на стадионах и во дворцах спорта. Солистами помимо Александра Лосева были также Сергей Грачев, Константин Никольский и Александр Слизунов. Из-за непосильной работы, делавшей невозможным какое-либо творчество, начался конфликт с администрацией учреждения. Филармония отнеслась к этому совершенно спокойно, поскольку сохраняла за собой модное название. Намин, Никольский и клавишник Александр Слизунов ушли. Затем министерство культуры запретило и группу, и само название «Цветы» как «пропаганду западной идеологии и идей хиппи».

Никольский теперь был профессиональным музыкантом, и Юрий Антонов пригласил его в свой аккомпанирующий ансамбль «Магистраль» (вместе с ним туда пришёл и Слизунов). Оттуда Никольский был уволен, поскольку не по своей вине сфальшивил, играя соло во время концерта (яркий свет прожектора ударил ему в глаза).

Однако долго искать новую работу Никольскому не пришлось — Намин уже воссоздавал свою группу (теперь под названием «группа Стаса Намина» — оставшись без ансамбля, он самодеятельно выступал вместе с очень популярным в московской рок-среде «Удачным приобретением»; в Таллинском рок-фестивале 1976 года они участвовали именно под указанным названием и вскоре прекратили сотрудничество). Кроме того, Намин сделался неиграющим руководителем, и Никольский стал лидер-гитаристом; на ритм-гитаре играл двоюродный брат Намина Александр Микоян (единственный, кто остался из «Удачного приобретения»). Приглашены были, кроме Никольского и Микояна, Слизунов и игравший в «Цветах» с 1971 года барабанщик Юрий Фокин. Пришлось, правда, искать нового бас-гитариста, поскольку вокалисту и басисту Александру Лосеву Намин не простил, как он выразился, штрейкбрехерства (простив, однако, «русского Бонэма» Фокина). Вскоре Лосев стал солистом ВИА «Красные маки». Солистом же группы Стаса Намина стал Слизунов (в записи первой пластинки участвовал также певец Александр Заболотов).

В 1977 году выходит первая маленькая пластинка группы Стаса Намина, где главной была написанная Никольским и Слизуновым на слова Владимира Солдатова песня «Старый рояль». Она стала шлягером, а болгарская фирма «Балкантон» включила её в сборник «10 лучших песен года» (вместе с хитами Адриано Челентано, Донны Саммер и даже знаменитым «Отелем „Калифорния“» группы The Eagles). «Старый рояль» стал первой записанной песней новой группы, это удалось организовать в студии Дома звукозаписи в Москве на улице Качалова. В работе участвовал сборный состав: музыканты «Цветов» — Константин Никольский, Александр Слизунов, Стас Намин, и «Удачное приобретение».

В 1978 году Фокин покидает группу Стаса Намина и эмигрирует в США. Никольский посвящает Фокину «Ночную птицу» (первое название — «Прощание с другом») и тоже уходит. Хотя не только последний хит «Старый рояль», а и сочинённые лишь им одним песни иногда исполнялись группой («Вольный ветер» Никольского исполняли ещё «Цветы», когда он в них играл; в 1976-м песню «Летний дождь» записала Гюлли Чохели на гибкой пластинке журнала «Кругозор»). Ему было обещано, что некоторые из них будут включены в дебютный диск, но для второй маленькой пластинки записали только песни Намина.

Никольский стал участником ансамбля «Фестиваль», где записал свои песни — как ставшие впоследствии широко известными, так и малоизвестные («Счастлив певец», «Не грусти», «До свиданья, милый друг»). Их спел сам Никольский, а также солисты ансамбля Павел Богуш и Марк Айзикович.

Руководил «Фестивалем» композитор Максим Дунаевский, пригласивший Никольского в свой коллектив. «Фестиваль» записывал музыку к фильмам («Д’Артаньян и три мушкетёра», «Ах, водевиль, водевиль…») и много гастролировал по стране. На концертах «Фестиваля» Никольский пел свои песни.

Воскресение и Воскресенье
Весной 1979 года, на фоне постоянных конфликтов в «Машине времени», у Сергея Кавагоэ появилась идея поиграть с Константином Никольским, с которым они дружили и песни которого ему очень нравились. Кавагоэ привлек Евгения Маргулиса, и они начали репетировать вместе с Никольским его песни. Андрею Макаревичу увлечение основных соратников «талантом со стороны» было очень неприятно. На эту тему неоднократно возникали споры, но Кавагоэ и Маргулис заявляли, что никакого предательства тут нет, что Константин один, команды у него нет, поэтому они просто помогают ему довести его песни до ума. Поначалу они хотели делать группу с Никольским, но тот вдруг отказался.

В 1979 году возникает группа «Воскресение». Андрей Сапунов (он принимал участие в концертной деятельности группы Стаса Намина), блестящий вокалист, в качестве своеобразного приложения к первому магнитофонному альбому в последний студийный день спешно записывает в сопровождении Кавагоэ и Маргулиса камерные версии таких песен Никольского, как «Музыкант», «Зеркало мира», «Поиграй со мной, гроза», «Я сам из тех…», «Ночная птица», «Когда поймёшь умом…».

Исполнение своих песен Сапуновым Никольский раскритиковал и попросил не распространять эти записи (но было поздно: их уже начали распространять пресловутые пираты). В газетном интервью Никольский сказал, «что некоторые вокалисты иногда просто не понимали содержания песен, которые исполняли. Это плохо. Смысловые ударения не там ставили, слишком много красовались голосом. Андрей Макаревич всю жизнь без этого обходится. Молодец». Много лет позже не обошлось и без колких замечаний в сторону Макаревича, что тот не научился играть на гитаре.

Записи Сапунова Никольский критиковал и в буклете к сборнику своих песен «Музыкант» (2001): «Сапунов считал, что голос — это всё. И очень любил „А-а-а-а“, мелизмы всякие... Я спорил: вот пять песен, мелодии у всех разные, а ты их одними и теми же мелизмами — раз, и словно мылом всё замазал... Мелодия — это вещь неприкосновенная. Даже Стравинский говорил: „Точность — синоним выразительности“». Тем не менее после этих записей они сотрудничали — и в «Воскресении», и после его распада (по крайней мере, в одном совместном акустическом концерте, запись которого сохранилась).

В 1980 году Никольский и Сапунов едва не попали в новую группу Театра имени Ленинского комсомола, которая должна была заменить уходящий «Аракс» и исполнила перед худсоветом театра все партии в рок-опере Алексея Рыбникова «Звезда и Смерть Хоакина Мурьеты». Однако готовилась новая рок-опера — «Юнона и Авось». Рыбникова и главного режиссёра Марка Захарова больше привлекла созданная Крисом Кельми группа «Рок-ателье» (возможно, своим упором на клавишные, очень подходившим для «Юноны и Авось»).

О своей музыкальной деятельности в конце 1970-х — начале 1980-х годов Никольский отзывался так: «„Фестиваль“ по подбору инструменталистов был очень хорош. С нами пели Боярский, Понаровская, Жанна Рождественская. Было много работы, проехали с концертами всю страну „насквозь“: от Амура и до Бреста. Я считаю, что после исполнения Сапуновым таких моих песен, как „Музыкант“, „Ночная птица“, и других, работа в „Самоцветах“ для него явилась проблемой. Но, видимо, он как-то все погасил внутри себя, сказал: „Я профессионал, и мне все равно, что петь“. Поэтому я и не работаю с „Воскресением“. Рока не было, а Макаревич был и что-то пел, и так как он был единственным (а не лучшим), то мы и поимели то, что называется „Машиной времени“. И „выстрелила“ она потому, что люди не знали, кто написал „Музыканта“. Рассуждали так: если песню поет не ВИА, то это „Машина времени“. А я всю жизнь эту ситуацию разгребал».

Первый состав «Воскресения» прекращает своё существование осенью 1980 года. Успех песни Алексея Романова «Кто виноват?», занявшей высокое место в хит-параде газеты «Московский комсомолец» (рубрика «Звуковая дорожка»), так и остался единственным масштабным успехом, а песню большинство молодых меломанов приписывало «Машине времени».

Между тем Никольский, которого обучение в ГМУ имени Гнесиных отвлекло от работы в «Фестивале», репетировал вместе с легко освоившим бас-гитару Сапуновым и барабанщиком Михаилом Шевяковым. Он позвонил Романову, предложил тому присоединиться. Группа «Воскресение», вполне соответствуя своему названию, воскресла из пепла.

В конце 1980 года обновленное «Воскресение» уже давало первые концерты. Это был совсем другой звук и иная ориентация — более насыщенная и резкая. Произошло это не случайно. Никольский, прекративший гастрольную деятельность в составе эстрадных ансамблей и поступивший в Гнесинское музучилище, стал неформальным лидером группы и попытался наладить в ней учебный процесс. «С появлением Никольского в команде началась серьезная профессиональная работа, — вспоминал звукооператор Александр „Артем“ Арутюнов. — По большому счету, все, кроме Никольского, не были сильными музыкантами. Поэтому Костя постоянно требовал от остальных участников группы умения играть необходимый минимум и организовал репетиционный процесс таким образом, чтобы внутрь группы не проникал дух шары».

7-10 июня 1981 года в подвале приёмной комиссии старого здания МГИМО (Шевяков учился в этом институте) за три ночи был записан магнитофонный альбом «Воскресение-2». Туда вошли песни Никольского «В моей душе осадок зла» (в его исполнении), «Воскресенье» и «Один взгляд назад» (в исполнении Сапунова).

Заглавная композиция под названием «Воскресенье» была написана Никольским и датировалась 1978—1979 годами. С неё, как правило, начинались концерты, и на альбоме она шла первой. Никольский к тому моменту отошёл от музыки Сантаны и не на шутку увлекся Dire Straits, у которых ритм в ряде композиций также обозначался с помощью регги. Альбом делался в два наложения — на инструментальную фонограмму писались вокал и соло-гитара, а в нескольких вещах сверху добавлялось ещё одно гитарное соло Никольского, причем звук снимался не с гитары, а с мониторов. Беда всей сессии заключалась в том, что звук в мониторах кардинальным образом отличался в наушниках у Арутюнова. Когда Арутюнов с Никольским приехали на телевидение осуществлять монтаж, они ужаснулись: на выверенной стационарной аппаратуре пленка шипела, тарелки били по ушам, а вокал оказался попросту завален. Это был акустический обман среднечастотных мониторов, приведший к диспропорции звука по всему спектру частот. «Воскресение» оказалось ещё одной жертвой нестандартных линейных характеристик — в одном ряду с сотнями рок-групп, обманутых в стенах студий хрустальным звучанием сверхизысканных мониторов. Но Арутюнову все-таки удалось спасти эту запись. На пленке ORWO он сделал скорректированный моно-вариант, добавив при помощи эквалайзера низы на вокал и по возможности опустив высокие частоты. В таком сверхдоработанном виде пленка пошла в народ — если не учитывать вариант с псевдостереофоническим звучанием, который неудачно попытались сделать спустя несколько месяцев на одной из радиостанций.

Сам оригинал альбома в 1983 году после ареста Романова и обыска в доме Арутюнова был конфискован и оказался запертым в сейфах областного управления внутренних дел в Москве на улице Белинского. Однако Арутюнову удалось, казалось бы, невозможное — получить оригиналы обратно: «Когда увольнялся с телевидения, на мне числилось определенное количество пленки, которую я обязан был вернуть обратно. Взяв на работе соответствующую бумагу о своих пленочных долгах, поехал в управление внутренних дел. Они вернули мне оригиналы, сопроводив этот акт документом о выдаче пленок. После чего я рванул на такси домой, намотал на основание катушки необходимое количество ненужной пленки и вернул долг на телевидение. Таким обманом мне удалось сохранить оригиналы».

Последний курьез, связанный с мастер-лентой, произошёл в начале девяностых годов, когда московская фирма «Фили» решила выпустить второй альбом «Воскресения» на виниловой пластинке. Прослушав глуховато звучащую пленку, представители организации в гневе позвонили Арутюнову: «Что это ты нам подсунул?!» В поисках истины пришлось перезванивать Никольскому, который подтвердил подлинность ленты. «Все правильно, — сказал он. — Оригинал 81-го года звучит именно так».

«Как звукорежиссёр я ощущал разницу между тем, что происходило у меня в аппаратной, и тем звуком, на котором записывалась группа, — отмечал Арутюнов. — Но в тот момент ни у кого не было времени, и мне было тяжело бороться с авторитетом Никольского, пытаясь убедить его обратить внимание на подобные расхождения».

Кроме того, Никольский блестяще исполнил все гитарные соло, а в песне «Один взгляд назад» выдал, видимо, лучший басовый рифф в истории русского рока. «Именно этой записью миллионы граждан Советского Союза затирали головки „Электроник-302“ и „Вёсен-204“…» (Артём Липатов, «Легенды русского рока»). Однако произошло такое не сразу.

«Воскресение» не попало в десятку лучших групп «Звуковой дорожки», в хит-парад вошла только песня «Поиграй со мной, гроза», которую Никольский три года назад записал с «Фестивалем» (вошла именно в его исполнении и указывалась как сольная). Кроме того, «В моей душе осадок зла» из-за схожести голоса слушатели приписывали Андрею Макаревичу. Песни «Воскресения» стали звучать из окон уже после того, как группа распалась, когда Романов и бывший гитарист «Аракса» Вадим Голутвин создали новую группу, впоследствии получившую название СВ.

Один из последних концертов «Воскресения» того периода полулегально состоялся 28 марта 1982 года в ДК МЕХТЕХа (рядом со станцией метро «Новослободская» в Москве). Прозвучали и песни Никольского: «Воскресение», «Один взгляд назад», «Зеркало мира», «Ночная птица», «Я сам из тех…», которые исполнял Сапунов, а «В моей душе осадок зла» и «Когда поймёшь умом…» пел сам Константин. Запись была издана в 1994 году фирмой ДЛ-ЛОТА.

Зеркало мира
Никольский вернулся в «Фестиваль», принял участие в записи маленькой пластинки ансамбля и окончил Гнесинское училище. Но «Фестиваль» прекратил свое существование, потому что возник оркестр Максима Дунаевского. Никольский пел на концертах под акустическую гитару, в 1984—1986 годах исполнял несколько своих песен в программе группы «Галактика». Там он познакомился с барабанщиком Виталием Бондарчуком, вместе с которым организовал в сентябре 1986-го группу «Зеркало мира». При записи первого (и единственного) магнитофонного альбома Бондарчук играл на клавишных и популярном тогда ритм-компьютере («драм-машине»); в записи, кроме него и Никольского, приняли участие бас-гитарист Игорь Яшуков и бэк-вокалист Аркадий Березовский. В альбом вошли как песни последних лет, так и песни из репертуара «Воскресения».

Вскоре Бондарчук, придавший альбому элементы электропопа, уходит, чтобы заняться сольными проектами, а затем становится клавишником группы «Рондо», которая выступала вместе с «Зеркалом мира» в одной программе. В скором времени появляется новый состав «Зеркала мира»: Константин Никольский — гитара, вокал; Аркадий Березовский — вокал; Виталий Зайков (экс-«Фестиваль») — бас-гитара; Алексей Маслов — ударные.

В 1986 году возник ансамбль «Старая гвардия». В его состав вошли Александр Сикорский (руководитель), Константин Никольский (гитара), Валерий Гилюта (гитара), Алексей Шачнев (бас) и Алексей Сикорский (ударные). В 1989 году к ним присоединился Денис Мажуков. В том же году Алексея Сикорского сменил Михаил Соколов («Петрович»), но в 1993 он стал «harmonica-man» и на его место пришёл Алексей Коллодий. Состав изменялся: Никольский и Мажуков то принимали участие, то нет, так как были заняты в собственных проектах. Такая ситуация продолжалась примерно до 2007 года.

В 1987 году Никольский в числе прочих исполнителей записал голос и снялся в клипе на песню Криса Кельми «Замыкая круг». Однако с точки зрения 80-х годов в СССР клипом это выступление назвать сложно. Кельми собрал 28 музыкантов самых разных направлений от рока до поп-музыки. В том же году вышел и альбом «Рок-ателье» «Замыкая круг», где была песня Кельми на стихи Никольского «Слушай, ночь».

18 февраля 1989 года в Москве в спортивном зале Дружба в Лужниках прошёл концерт «10 лет группе Воскресение». Никольский выступал с составом: Михаил Шевцов (клавишные), Алексей Маслов (барабаны), Сергей Балакирев (бас-гитара), коллега Константина по Гнесинскому училищу, и Аркадий Березовский (звукооператор, вокал). В конце мероприятия Романов, Никольский, Сапунов, Шевяков объединились и играли как в 1981-м.

Самостоятельный путь
В 1990 году Никольский распускает «Зеркало мира» и начинает сольную карьеру. Он выпускает магнитофонный альбом; в записи приняли участие музыканты, с которыми Никольскому предстояло сотрудничать много лет, — последний клавишник «Зеркала мира», виртуоз электрооргана и фортепиано Михаил Шевцов, бас-гитарист и талантливый студийный звукорежиссёр Александр Кузьмичёв, барабанщик Игорь Костиков. Аркадий Березовский стал «поющим звукооператором». Фактически изменился только состав; Никольский по-прежнему исполнял свои песни с аккомпанирующей группой.

Через год была записана песня «Я бреду по бездорожью», давшая альбому название. В альбом вошли четыре песни на стихи самого Никольского, три — на стихи португальского поэта Фернандо Пессоа, одна — на стихи классика испанской поэзии Густаво Адольфо Беккера. В 1992 году вышла виниловая пластинка, в 1994-м — компакт-диск.

В 1992 году состоялся первый релиз FeeLee Records — альбом «Воскресенье», для презентации которого в ДК Горбунова в Москве группа на один концерт воссоединилась в золотом составе Романов — Никольский — Сапунов — Шевяков.

Вышел на диске первый российский мюзикл авторства Андрея Морсина «Волшебник Изумрудного Города». Аранжировки полностью соответствовали первой половине 90-х — в основном синтезатор. Хотя (что было редкостью для эстрады данного периода — а мюзиклы Морсина логично относить к этому жанру) наличие «живых» инструментов, вроде гитары и виолончели, хоть и редкое, но сразу поднимало «Волшебника» на несколько ступеней выше прочих творений того времени. Никольский исполнил партию Гудвина и сыграл на соло-гитаре. Принимал участие в записи и Алексей Романов.

Тогда же была предпринята попытка восстановить «Воскресение» в «золотом составе» (Романов — Никольский — Сапунов — Шевяков). 12 марта 1994 года состоялось единственное выступление, а на следующий день Никольский и Романов провели в камерном зале Детского музыкального театра имени Н. Сац в Москве совместный акустический концерт, запись которого вышла потом на компакт-диске. К сожалению, Никольский не нашёл понимания у бывших товарищей, и восстановление группы продолжилось без него.

В сентябpе 1995 года скpытый конфликт между составом «Воскресения» и Константином Никольским пpоявился в заявлении для пpессы, в котоpом участники «Воскресения» возpажали пpотив использования им в своей pекламе названия гpуппы, в то время как Никольский возражал против того, что его песни звучали на концертах «Воскресения».

В 1996 году Никольский выпустил диск «Один взгляд назад», состоящий из новых версий его старых песен. Почти все они входили в репертуар «Воскресения». Было только два исключения. Ранней песней «Птицы белые мои» открывался магнитофонный альбом «Зеркала мира», и с нею же (исполняя под акустическую гитару) Никольский в июне 1984-го дебютировал на телевидении. «Мой друг, художник и поэт», песня, которую многие считают лучшим произведением Никольского и которой он в последнее время обычно открывает свои концерты, была в 1978-м записана «Фестивалем» (её тогда спел Павел Богуш).

В 1996 году был готов альбом группы «Адо» «Веди себя хорошо». Среди приглашенных музыкантов оказался и Константин Никольский, который записал соло в песне «Я тебя никому не отдам», но в первую версию альбома бельгийские издатели из MDC Records этот трек не включили, он был опубликован позднее, потому что через несколько лет весь материал частично пересвели в Москве для второго издания, появившегося в 2003 году.

В том же году вышло два издания группы «Аракс» — студийное «Old, But Gold!» с версиями песен «Один взгляд назад», «Когда поймешь умом» и концертное «The best of Live 1981» (те же треки, но последний упомянутый назван «Из-под крана…»).

А. Морсин выпустил свой мюзикл «Снежная королева» (1996), на этот раз Константин Никольский был только соло-гитаристом в некоторых эпизодах («Видение», «Розовый сон», «Эпилог»).

Нулевые годы
Празднование юбилея первых исполнителей блюз-рока в СССР — 30 летия «Удачного приобретения» — превратилось в фестиваль в концертном зале клуба «Ю-ТУ» в Москве 12 мая 2000 года. В мероприятии приняли участие: Константин Никольский, Николай Арутюнов, Сергей Воронов и группа «Кроссроадз», «Старая гвардия», Борис Булкин и «Вольный стиль», Леван Ломидзе и «Блюз Казенз».

В 2000 году появилась песня умершего музыканта, барабанщика, Александра Косорунина, «Серый дождь», которую он написал, но не сыграл и исполнил, в память его самые близкие друзья собрались и записали её. Бас-гитары: Владимир Беленко и Алексей Осташев, гитара: Игорь Кожин, шейкер: Сергей Григорян, вокал: Константин Никольский, Сергей Шипилов, Александр Иванов, Николай Арутюнов. Косорунин принимал участие во многих музыкальных проектах: «Каскад», «Маршал», «Академия Рока», «Рондо», «Мегаполис», «Лига Блюза», «Лицей», «Треф», «Неприкасаемые», «Черный Обелиск», «Четверг Арутюнова».

В январе 2001 года в связи с 30-летием состоялся юбилейный концерт «Цветов» в ГЦКЗ «Россия» с участием музыкантов, работавших в группе в 1970—2000 гг., и друзей. Никольский, Слизунов и Александр Грецинин спели песню «Старый рояль». Также Константин сыграл на лидер-гитаре в композиции «Рано прощаться».

1 февраля 2001 года Никольскому исполнилось 50 лет. Юбиляр отыграл два аншлаговых концерта в ГЦКЗ «Россия». В числе гостей-участников были «Старая гвардия» Александра Сикорского, исполняющая только кавер-версии англоязычных песен (правда, Никольский и Сикорский спели дуэтом старую песню времён «Атлантов»), Юрий Лоза. Через месяц вышел двойной концертный альбом.

В том же году студия «Союз» выпустила двойной сборник «Музыкант», позднее переизданный в серии «Союз Gold». Константин Никольский в который раз устало снимет со стула свой обветшавший сюртук. За ним снова будут наблюдать верные поклонники. Все это так привычно, что не требует отдельных комментариев уже лет 15.

Несколько песен Никольского вошли в альбом «Просто…» певицы Натальи Пушковой. Казалось бы — причем здесь Никольский? Реклама ему давно не нужна. Эксперименты ради эксперимента — мало интересны. В чём попало он не участвует. Тем не менее, отдал для нового альбома Пушковой две своих песни. Но не из тех, что поет на концертах лично, а из «хорошо забытого старого» — неизвестного широкой публике, не выходившего на аудионосителях. При том, что продюсеры и лейблы давно уговаривали Константина записать это самому — или, например, продать каким-нибудь «звездам».

Никольский всегда очень сердился, когда в 70-х годах его песни исполнялись вокалистами ВИА, в которых ему доводилось играть на гитаре. Именно поэтому однажды Константин решил поработать как следует над собой, чтобы свой материал исполнять самстоятельно и больше не пытаться никому объяснять, о чём он написал песню и почему её следует петь иначе. Что же касается композиций «Голос» и «Четыре дерева» — в альбоме последняя названа «В садике моем» (текст из книги «Тень деревьев», перевод с французского И. Эренбурга), то Никольский убежден, что исполнение Натальи Пушковой — единственный и наилучший вариант, в котором они могут быть обнародованы. Он сам записал гитару в этих треках, а также в песне «Просто…», к тому же появился в одноименном клипе, который был снят на уфимской видеостудии «Муха».

Наталья Пушкова нечасто сталкивалась с Никольским в студии: «Сначала он записывал свои гитары, потом я приезжала и пела, потом мы ему все это показывали. Ему нравятся мои версии его песен…» Константин Никольский — друг её семьи. Для своих он достаточно открытый, а вот к чужим относится настороженно; не любит посторонних, старается не давать интервью, а если иногда какой-нибудь телепередаче удается пригласить его в эфир — потом он растерянно пожимает плечами и говорит, что «было неудобно отказаться, пришлось идти».

Однако ещё в 1995 году на лейбле «ДЛ-ЛОТА» вышел компакт-диск Пушковой «Крапива-лебеда», там было две песни Никольского, а именно — «В садике моем четыре дерева» и «Голос», хотя и в другой аранжировке. Эти вставки смотрелись наподобие песни «Воскресения» «Кто виноват», которую группа помещает почти в каждый свой альбом. На одной пресс-конференции с Константином тот ругал певицу Натали за то, что та, на его взгляд, не очень достойно перепела «Птицы белые мои» (тогдашний продюсер Валерий Иванов рассказывал, что они у Никольского приобрели эту песню официально). Но Никольский жестко реагировал — какой-то девчонке нечего трогать его творчество. На вопрос: «А как же Наталья Пушкова, которая спела две ваших песни?» Константин ответил: "Ей можно. Потому что это жена моего друга Кирилла Есипова из «Рок-Академии».

Немолодой Константин Никольский уверял, что молодежные экстремальные виды спорта у него в почете, а сам он увлекается триалом.

Лидеру «Удачного приобретения» Алексею «Вайту» Белову исполнилось 50 лет. 13 сентября 2001 года в честь юбилея в московском Центральном доме художника прошёл праздничный концерт — джем-сейшен. Вместе с Беловым на сцену вышли Борис Булкин, Игорь Кожин, Леван Ломидзе, Константин Никольский.

В 2004-м вышел сборник «Мне только снится жизнь моя», который открывали две новые записи, сделанные для готовящегося номерного альбома. Создавалось впечатление, что «главный меланхолик русского рока» уже давно живёт за счет старых хитов, и надпись «новая песня» на обложке очередного «The Best» вызывает грустную улыбку. Композиции «Мне только снится жизнь моя» и «Облако» не показали другого Никольского. Но на новые аранжировки стоит обратить внимание. Хотя песни изменились незначительно, но благодаря чутким корректировкам зазвучали по-иному.

1-2 февраля 2006-го в ГКЦЗ «Россия» прошли концерты под названием «День рождения в лунном свете», посвящённые 55-летию Никольского. Были исполнены все песни, предназначенные для нового альбома, о чём Никольский сам объявил зрителям. Однако уже через несколько месяцев он оказался в больнице.

Проблемы со здоровьем, прединфарктное состояние на время прервали запись альбома, но в конце сентября 2007 года альбом «Иллюзии» вышел. Отказ от клавишных инструментов и участие в записи гитариста Игоря Кожина (товарищ бас-гитариста Кузьмичёва по металлическим группам «Раунд» и «Кардинал», затем игравший в «Лиге блюза», «Арсенале», коллективах «Треф», «Torch») сделали звучание более жёстким. В «Иллюзии» вошли три песни с так и не вышедшего на компакт-диске альбома группы «Зеркало мира», известные по концертным дискам «Голос» и «Песня о песне», а также пять новых песен — на стихи Фернандо Пессоа и самого Никольского. О единственной новой песне, где Никольским были написаны и музыка, и стихи («Утешь меня, судьба»), об её поэтическом уровне стоит сказать, что есть ещё порох в пороховницах. Новые песни по признанию самого автора в интервью газете «Известия» были написаны за три-четыре года до выхода альбома.

«Иллюзии» вышли также и на грампластинке, произведенной в Германии и распространяемой студией «Союз». В России винил переиздавался.

Песню «Один взгляд назад» (известную в народе как «Ветерок»; она не вошла в альбом, но речь о концертных исполнениях), которая в новой, утяжеленной аранжировке с ревущим фузом звучала хард-роково, Никольский иронически прокомментировал: «Практически Deep Purple». Ощущалось непривычное — идет музыка на русском языке, а звучит все — не придерешься: ритм-секция — как часы, играют синхронно. Кожин использовал в основном не аккорды, а интервалы, преимущественно квинты и кварты. Исполняя соло, явно импровизировал. Местами в аранжировках чувствовалось влияние Dire Straits. У Константина общечеловеческие идеи не стареют, а русский лиризм сочетается с западным подходом и исполнительским мастерством. Есть такой термин — evergreens, то есть нестареющие произведения. Можно смело сказать, что ими являются песни Никольского.

В 2007 году студия «Союз» издала сборник Константина Никольского «Антология». Он примечателен тем, что к альбомам «Я бреду по бездорожью…» и «Один взгляд назад» добавлены бонус-треки с концерта 2 февраля 2006 года в ГКЗ «Россия». Мастеринг осуществил звукорежиссёр Кирилл Есипов.

15 ноября 2009 года, выступая в Санкт-Петербурге, Никольский пояснил, что отказался выступать с группой, в полном составе, по причине проблем со здоровьем, а также своих высоких требований к музыкантам ансамбля. Поклонникам он рассказал, что бросил пить и курить после того, как в сентябре 2009 года ему провели очень сложную операцию на сердце.

На концерте во МХАТе имени Горького Никольский сказал, что у него есть желание выпустить «Детский альбом», состоящий из его юношеских песен. Туда могли бы войти «Ты хотел увидеть мир», «Россия» («Небо — купол синий, первый ливень по весне. Это ты, Россия, ты, Россия, снишься мне» — писал молодой Никольский, служивший в Киеве), «Спокойной ночи, дорогая миледи», «Летний дождь», «Я думал о многом и разном», «Воздушные замки», «Алёна», «Ты девчонка хорошенькая».

Возможен и новый альбом. В упоминавшемся выше интервью газете «Известия», опубликованном в сентябре 2007 года по случаю выхода «Иллюзий», Никольский сказал: «Я вот за прошлую неделю написал сразу три песни. У меня есть ещё какое-то количество незаписанных вещей, созданных в последние годы. Получается в сумме штук десять. Можно составить ещё один альбом, и старых композиций в нём уже точно не будет».

Впрочем, в этом же интервью Никольский, отказавшись от приписанной ему фразы «Новые песни пишут те, у кого старые плохие», заметил: «Но я действительно никогда не спешил, не стремился успеть за модой, не ставил задачи, что вот сейчас надо обязательно записать пластинку. Плохо делать не надо. Лучше посидеть, подумать, добросовестнее отнестись к предмету и затем уж предлагать материал слушателям. А то, знаешь, бывает так: музыканты выпускают что-то, чтобы слушали другие, а сами свою пластинку никогда не поставят. А я иногда и сам хочу своё послушать…». Действительно, вряд ли можно найти ещё одного автора-исполнителя, у которого так мало записанных или хотя бы исполненных на концертах песен.

28 ноября 2008 года в Москве в клубе «Кино» состоялось выступление Константина Никольского для специальных гостей фестиваля «Дискотека 80-х. The Best». Музыкант исполнил свои самые популярные хиты, а также песни с последнего альбома.

В сентябре 2009 года Константин Никольский выступил на международном арт-фестивале современной музыки МАМАКАБО. «Я не знаю, почему согласился, — говорил Никольский. Никогда ни в каких фестивалях не участвовал, потому что там все время предполагается какой-то бег на время. Я это не люблю ещё со школы. Главное — пройти дистанцию и не упасть. А Тимура знаю давно и доверяю ему. Он мне позвонил и сказал хорошие слова. Я не помню что, но другие люди говорили, и я не соглашался». «Поэтому я согласился даже не для того, чтобы самому поучаствовать, а чтобы на других посмотреть, встретиться с музыкантами, которых в своей обычной жизни не вижу, но уважаю. На концертных площадках мы не встречаемся, потому что работаем в разные дни. На гастроли я сейчас не езжу. Так что, это хорошая возможность друг у друга подсмотреть, кто, что и как умеет делать».

27 ноября 2009 года Никольский в качестве специального гостя принял участие в фестивале «Дискотека 80-х» в спорткомплексе «Олимпийский» в Москве. Александр Варин: Константин Никольский вообще почти не появляется на больших сборных концертах. Но он выступал у нас в прошлом году на after-party «Дискотеки 80-х», почувствовал атмосферу этой акции, теплое отношение к нему и согласился в этом году выйти уже на сцену «Олимпийского».

Было очевидно, что автор «Музыканта» устал, и все же он успел сказать, что «не может оценить состояние русского рока сегодня, поскольку того больше нет». Также Никольский рассказал всем жаждущим общения с ним, следующее: «Такой ажиотаж вокруг „дискотеки“ понятен, в музыке тех лет есть душевность. Она не разменяна, как сейчас. Сейчас все без души. Я не так давно плохо себя чувствовал, но сейчас, слава Богу, лучше, возобновил концерты. Сегодня, когда вышел на сцену, обалдел. Столько народу, и чувствуется, что соскучились, что ждут и хотят одного и того же. Я бы хотел, чтобы сегодня было больше авторов, которые так же заботились о мелодичности и качестве своей музыки, как мы в свое время».

Своим любимым гитаристом Никольский назвал Гэри Мура (телеинтервью программе «Утро»). Влияние ирландской гитарной школы (первый гитарист «Thin Lizzy» Эрик Белл, Гэри Мур и другие) особенно проявилось в песнях «Я сам из тех…», «Ночная птица», «Цветок у окна». Этим влиянием творчество Никольского как гитариста, конечно, не ограничивается. В песне «От любви к любви» (альбом «Я бреду по бездорожью») соло записано при помощи двух наложений. В одной из партий нетрудно уловить сильное сходство с Марком Нопфлером, которое, впрочем, перекрывается другой партией.

Признание Никольского в упомянутом выше телеинтервью, что он, как ни странно, всегда спокойно относился к Ричи Блэкмору, показывает, что в мастерстве гитариста (и явно в музыке, поэзии) для него важнее техники душевность, энергетика, экспрессия, драйв. Также Константину нравятся Robben Ford, Эрик Клэптон, Би Би Кинг.

Продолжение следует
6 марта 2010 года в московском концертном зале «Крокус Сити Холл» прошёл юбилейный концерт «Цветов», которым исполнилось 40 лет, среди приглашенных выступавших оказался и Константин Никольский.

5 декабря 2010 года на упоминавшемся концерте в Оренбурге Никольский заявил о готовности выпустить в следующем году свой четвёртый альбом, а также, что уже готов материал для пятого. 10 декабря 2010 года в Череповце музыкант рассказал, что новые песни будут прежде всего про любовь, потому что с годами это чувство стало для него отдельным от всех остальных.

3 февраля 2011 года в связи с 60-летием состоялся юбилейный вечер Константина Никольского «От любви к любви» в Московском международном Доме музыки. Были исполнены хиты, композиции c альбома «Иллюзии», а также неизвестные, никогда не исполнявшиеся на концертах песни. В юбилейном вечере участвовали: Константин Никольский — вокал, гитара, Игорь Кожин — гитара, Юлия Никольская — вокал. Многие концерты в последнее время Никольский даёт в форме творческого вечера. Этот единственный в своем роде артист далек от рекламной суеты, не появляется на музыкальных тусовках и фестивалях, что, однако, не мешает ему собирать на своих выступлениях полные залы в разных городах России. Звукорежиссёром выступлений стал Игорь Артемков.

13 октября 2011 года в Северодвинске по поводу выпуска нового альбома Никольский дал понять, что когда содержание созреет, тогда будет альбом. Песни для нового альбома есть, в том числе очень старые, написанные году в 85-м, но неизвестные.

10 декабря 2011 года в Донецке на вопрос — к какому жанру сам Константин причисляет свои песни, он ответил: «На мой взгляд, этот жанр так и называется — Константин Никольский». Из ответов певца также стало известно, что он не является поклонником футбола, романтичен, аполитичен и обладает тонким чувством юмора. С теплотой отзывался Никольский о музыканте Гэри Муре и даже сыграл инструментальную пьесу этого знаменитого гитариста.

24 ноября 2012 года с успехом выступил вместе со своей 27-летней дочерью Юлией на XI фестивале «Дискотека 80-х» Rock &Dance в спортивном комплексе «Олимпийский» в Москве. Константин отметил: «Я продолжаю выступать, ездить по концертам. А с дочкой мне очень нравится выступать. У нас с ней очень хорошо звучат голоса, поэтому она вторым голосом очень хорошо справляется. Я очень рад, что она поет вместе со мной и хочу, чтобы она продолжила петь. Моя музыка, конечно, не для дискотек, хотя ее постоянно поют на разных танцах».
Доп. информация: Диск "Счастлив певец" неофициальный и предназначен для людей, глубоко интересующихся творчеством К. Никольского (в составе гр. Фестиваль). Звучание данного диска оставляет желать лучшего, но это раритет, отсутствующий даже в mp3.
Диск "Музыкант" (подарочное издание) - подарок всем поклонникам творчества К. Никольского. Подарок заключается в том, что в данном издании присутствуют 24 изображения, содержащие фотографии, тексты песен, информацию о творчестве и авторизованные аккорды песен.
КУБКИ

СТАЖ

МЕДАЛИ
Награды:35

За помощь проекту (5) За отличные раздачи и качество (16) За отличные комментарии (5) Почётный форумчанин (4) Верный Сид (3)

Аватара пользователя
Switzerland
Kwinto
Опытный Модератор-Корсар
  • Торрент
Для скачивания торрента необходимо зарегистрироваться или войти на трекер.

Сообщение filbi1976 » 25 авг 2018, 20:29

Супер, такие песни будут жить всегда. :hi: :dance: :music:
phpBB [media]


Тема поднималась пользователем filbi1976 25 авг 2018, 20:29.
Посмотреть товар в профиле пользователя

Нажмите на изображение, чтобы увидеть в полный размер  
1 шт.
Нажмите на изображение, чтобы увидеть в полный размер  
1 шт.
Нажмите на изображение, чтобы увидеть в полный размер  
1 шт.
Нажмите на изображение, чтобы увидеть в полный размер  
1 шт.
Нажмите на изображение, чтобы увидеть в полный размер  
1 шт.
Нажмите на изображение, чтобы увидеть в полный размер  
1 шт.
Нажмите на изображение, чтобы увидеть в полный размер  
1 шт.
Нажмите на изображение, чтобы увидеть в полный размер  
1 шт.
Нажмите на изображение, чтобы увидеть в полный размер  
1 шт.
Нажмите на изображение, чтобы увидеть в полный размер  
1 шт.
Нажмите на изображение, чтобы увидеть в полный размер  
1 шт.
Нажмите на изображение, чтобы увидеть в полный размер  
1 шт.
Нажмите на изображение, чтобы увидеть в полный размер  
1 шт.
Нажмите на изображение, чтобы увидеть в полный размер  
1 шт.
Нажмите на изображение, чтобы увидеть в полный размер  
1 шт.
КУБКИ

СТАЖ

МЕДАЛИ
Награды:120

За помощь проекту (3) За отличные раздачи и качество (76) За отличные комментарии (6) Почётный форумчанин (5) Верный Сид (27) За участие в конкурсах/играх (1)

Аватара пользователя
Тортуга
filbi1976
Администратор-Корсар


Вернуться в Отечественный Рок (Lossless)



Uptime по данным Ping-Admin.Ru - сервиса мониторинга доступности сайтов
Рейтинг@Mail.ru