logo
Международный русскоязычный
торрент-трекер
Menu
Doublon
Поделиться с друзьями: 
Голосуй за Корсар и получи 500 дублонов
Рейтинг торрент трекеров - UpTracker.ru

Колл-центр / Серии: 01-08 из 08 (2020, драма, мистика, триллер, HDTV 1080i)

Сообщение kisa1980 » 25 мар 2020, 00:54

Название: Колл-центр
Год выхода: 2020
Жанр: Драма, мистика, триллер
Режиссер: Наталья Меркулова, Алексей Чупов
В ролях: Павел Табаков, Владимир Яглыч, Юлия Хлынина, Анатолий Белый, Сабина Ахмедова, Мадлен Джабраилова, Никита Тарасов, Аскар Нигамедзянов, Зоя Кайдановская, Полина Пушкарук, Ольга Веникова, Леван Хурция, Стася Милославская, Тарас Епифанцев, Константин Белошапка, Наталья Кудряшова, Алиса Сельникова, Егор Шереметьев, Екатерина Волкова, Антон Ерёмин

О фильме: Москва. Высотка. Здесь, на 25-м этаже находится офис колл-центра «Интернет-магазин для взрослых». Однажды утром, как обычно придя на работу, его двенадцать сотрудников вдруг узнают, что в помещении - бомба. Голоса неизвестных, представившихся Папой и Мамой, угрожают взорвать ее в любой момент, если заложники не будут выполнять их указания. Пока тикает бомба, им предстоит испытать на себе абсолютную власть невидимых садистов и узнать о жизни друг друга такое, о чём они даже не подозревали.



Страна: Россия
Студия: PREMIER Studios
Продолжительность: 8х ~ 00:45:00
Перевод: Не требуется

Качество: HDTV 1080i
Кодек: MPEG-4 AVC
Видео: 1920х1080 (16:9), 25 fps, High@L4.0, 5600 kbps avg
Звук: Русский: 48 kHz, MPEG Layer 2, 2 ch, ~ 192 kbps avg
Субтитры: Нет

Релиз от:

General
ID : 1 (0x1)
Complete name : Koll_centr.S01.E01.2020.HDTV._1080i_.ExKinoRay.ts
Format : MPEG-TS
File size : 30.7 MiB
Duration : 45 min 0 s
Overall bit rate mode : Variable
Overall bit rate : 4 037 kb/s

Video
ID : 211 (0xD3)
Menu ID : 2207 (0x89F)
Format : AVC
Format/Info : Advanced Video Codec
Format profile : High@L4
Format settings, CABAC : Yes
Format settings, RefFrames : 4 frames
Codec ID : 27
Duration : 45 min 0 s
Bit rate : 5 644 kb/s
Width : 1 920 pixels
Height : 1 080 pixels
Display aspect ratio : 16:9
Frame rate : 25.000 FPS
Standard : Component
Color space : YUV
Chroma subsampling : 4:2:0
Bit depth : 8 bits
Scan type : Interlaced
Scan type, store method : Separated fields
Scan order : Top Field First
Bits/(Pixel*Frame) : 0.070
Stream size : 27.6 MiB (90%)
Color range : Limited
Color primaries : BT.709
Transfer characteristics : BT.709
Matrix coefficients : BT.709

Audio
ID : 221 (0xDD)
Menu ID : 2207 (0x89F)
Format : MPEG Audio
Format version : Version 1
Format profile : Layer 2
Codec ID : 3
Duration : 45 min 0 s
Bit rate mode : Constant
Bit rate : 192 kb/s
Channel(s) : 2 channels
Sampling rate : 48.0 kHz
Compression mode : Lossy
Delay relative to video : -120 ms
Stream size : 1.46 MiB (5%)
Language : Russian
КУБКИ

СТАЖ

МЕДАЛИ
Награды:108

За активную помощь проекту (12) Лучший по количеству кубков (3) За отличные раздачи и качество (41) За подробное оформление раздач (8) За отличные комментарии (10) Почётный форумчанин (3) Верный Сид (28) За участие в конкурсах/играх (2)

Аватара пользователя
Тортуга
kisa1980
Главный помощник Администратора-Корсар
  • Торрент
Для скачивания торрента необходимо зарегистрироваться или войти на трекер.

Сообщение kwazar312 » 03 апр 2020, 10:19

Финал, как раз-таки, в высшей степени интеллектуальный и сверхактуальный для нашего времени. На порядок выше того,что можно было ожидать - ибо там были банальные уже ходы о наказании за грехи , классические со времён Агаты Кристи. А финал, придуманный Меркуловой и Чуповым - он о том, как вся наша жизнь превращается постепенно в реалити -шоу, в сериалы для кого-то( или Кого-то, если брать посыл философский, метафизический). Блогеры - моднейшее сейчас поветрие, моднейшая "профессия" превращают свою жизнь в реалити добровольно, а с кем-то это делают принудительно ( и , поверьте, это имеет место быть в реальности), а кто-то даже и не подозревает об этом, но с ним это тоже делают,без его согласия. Если брать выше, метафизически - то Бог или те, кто этот мир создал ,обожают сериалы и для Него(них) жизнь каждого человека - это сериал , который они вольны кроить по собственной прихоти. И Бог-садист, с садистским чувством юмора - это отражено точно, браво авторам! Если вспоминать о предтечах "Колл-Центра", то это не столько "Пила", сколько "Шоу Трумана" с Джиммом Керри) В общем, Меркулова и Чупов в очередной раз - после "Интимных мест" и "Человека, который всех удивил" - доказали, что они в этой профессии всерьёз и надолго."
Павлик - это орудие в руках Глории или её вернейший помощник, а вся история его с поступлением в театральный - это их совместная выдумка для обмана сотрудников колл-центра. Он, несомненно, артист, да только не такой артист, которым представился оставшимся в живым в восьмой серии. Второй сезон уже снимают, заявка на него очевидна в финальных кадрах последней серии . Да, это антиутопия. Как и вся наша жизнь, сейчас стремительно превращаюся прямо на глазах в антиутопию ( с QR-кодами, которые неожиданно стали актуальными , а в сериале код этот сыграл свою роль). Только не в неумелых , а в "ловких и натруженных руках"( как пел Макар).
После первого просмотра очень тяжело составить цельное представление,через недельку посмотрю второй раз.
Уважаемый kisa1980,спасибо за новинку.
:hi: :bebebe2: :crazy2:
КУБКИ

СТАЖ

МЕДАЛИ
Награды:141

Пожизненный VIP+ (2) За активную помощь проекту (14) Лучший по количеству кубков (43) За отличные раздачи и качество (3) За отличные комментарии (24) Почётный форумчанин (1) Верный Сид (48) За участие в конкурсах/играх (6)

Аватара пользователя
kwazar312
Заслуженный Корсар-Вип+


Вернуться в Отечественные сериалы (HD Video)



Uptime по данным Ping-Admin.Ru - сервиса мониторинга доступности сайтов
Рейтинг@Mail.ru