logo
Международный русскоязычный
торрент-трекер
Menu
"Бунт на корабле", за скачанные торрент-файлы дублоны не снимаются. Возможность оплачена пользователем Bulfrogg.
Doublon
Поделиться с друзьями: 
Голосуй за Корсар и получи 500 дублонов
Рейтинг торрент трекеров - UpTracker.ru

Колдун / Sorcerer (1977, триллер, драма, приключения, BDRemux 1080р)

Сообщение Gogen » 20 дек 2017, 01:39

Название: Колдун
Оригинальное название: Sorcerer
Год выхода: 1977
Жанр: триллер, драма, приключения
Режиссер: Уильям Фридкин
В ролях: Рой Шайдер, Бруно Кремер, Франсиско Рабаль, Амиду, Рамон Биери, Питер Кэпелл, Карл Джон, Фридрих фон Ледебур, Чико Мартинес, Джо Спинелл, Росарио Алмонтес, Ричард Холли, Анн-Мари Дешодт, Жан-Люк Бидо, Жак Франсуа, Андре Фалькон, Джерард Мёрфи, Десмонд Крофтон, Генри Даймонд, Рэй Диттрих, Фрэнк Джио, Рэнди Юргенсен, Космо Аллегретти

Описание: Нефтяная компания ищет водителей, готовых перевезти на грузовике груз со взрывчаткой. А четверо мужчин не могут вернуться в родные страны и по разным причинам вынуждены скрываться в Латинской Америке. Им нечего терять, но в случае успешного завершения операции каждый получит по 10 тысяч долларов и гражданство. Их ждут 200 миль дороги, где за каждым поворотом подстерегает опасность.



Страна: США
Продолжительность: 02:01:35
Перевод 1: Авторский (одноголосый, закадровый) Михаил Иванов
Перевод 2: Любительский (одноголосый, закадровый) Юрий Максимов
Перевод 3: Любительский (одноголосый, закадровый) Алексей Матвеев
Перевод 4: Субтитры
Субтитры: русские, английские
Оригинальная аудиодорожка: английский

Качество: BDRemux 1080р
Видео: 30000 Кбит/сек, NTSC 1920*1080 (16:9), 23,976 кадра/сек, AVC
Аудио 1: Русский, 192 Кбит/сек, 48,0 КГц, 16 бит, 2 канала, AC-3 - Иванов
Аудио 2: Русский, 192 Кбит/сек, 48,0 КГц, 16 бит, 2 канала, AC-3 - Максимов
Аудио 3: Русский, 3840 Кбит/сек, 48,0 КГц, 24 бит, 6 каналов, DTS MA / 1509 Кбит/сек, 48,0 КГц, 24 бит, 6 каналов, DTS Core - Матвеев
Аудио 4: Английский, 3840 Кбит/сек, 48,0 КГц, 24 бит, 6 каналов, DTS MA / 1509 Кбит/сек, 48,0 КГц, 24 бит, 6 каналов, DTS Core


бщее
Уникальный идентификатор : 172118412882754860432233327022306344450 (0x817CCCEFDECC186AA78425A9A551BE02)
Полное имя : Колдун (1977).mkv
Формат : Matroska
Версия формата : Version 4 / Version 2
Размер файла : 32,3 Гбайт
Продолжительность : 2 ч. 1 м.
Режим общего битрейта : Переменный
Общий поток : 38,0 Мбит/сек
Название фильма : Socrerer (1977)
Дата кодирования : UTC 2017-05-12 16:27:40
Программа кодирования : mkvmerge v11.0.0 ('Alive') 64bit
Библиотека кодирования : libebml v1.3.4 + libmatroska v1.4.5

Видео
Идентификатор : 1
Формат : AVC
Формат/Информация : Advanced Video Codec
Профиль формата : High@L4.1
Параметр CABAC формата : Да
Параметр ReFrames формата : 3 кадра
Идентификатор кодека : V_MPEG4/ISO/AVC
Продолжительность : 2 ч. 1 м.
Вид битрейта : Переменный
Битрейт : 30,0 Мбит/сек
Максимальный битрейт : 35,0 Мбит/сек
Ширина : 1920 пикселей
Высота : 1080 пикселей
Соотношение сторон : 16:9
Режим частоты кадров : Постоянный
Частота кадров : 23,976 (24000/1001) кадра/сек
Цветовое пространство : YUV
Субдискретизация насыщенности : 4:2:0
Битовая глубина : 8 бит
Тип развёртки : Прогрессивная
Бит/(Пиксели*Кадры) : 0.603
Размер потока : 25,4 Гбайт (79%)
Библиотека кодирования : x264 core 146 r2538 121396c
Настройки программы : cabac=1 / ref=4 / deblock=1:-1:-1 / analyse=0x3:0x133 / me=umh / subme=10 / psy=1 / psy_rd=1.00:0.15 / mixed_ref=1 / me_range=24 / chroma_me=1 / trellis=2 / 8x8dct=1 / cqm=0 / deadzone=21,11 / fast_pskip=1 / chroma_qp_offset=-3 / threads=12 / lookahead_threads=1 / sliced_threads=0 / slices=4 / nr=0 / decimate=1 / interlaced=0 / bluray_compat=1 / constrained_intra=0 / bframes=3 / b_pyramid=1 / b_adapt=2 / b_bias=0 / direct=3 / weightb=1 / open_gop=1 / weightp=1 / keyint=24 / keyint_min=1 / scenecut=40 / intra_refresh=0 / rc_lookahead=24 / rc=2pass / mbtree=1 / bitrate=30000 / ratetol=1.0 / qcomp=0.60 / qpmin=0 / qpmax=69 / qpstep=4 / cplxblur=20.0 / qblur=0.5 / vbv_maxrate=35000 / vbv_bufsize=30000 / nal_hrd=vbr / filler=0 / ip_ratio=1.40 / aq=1:1.00
Язык : English
Default : Да
Forced : Нет
Цветовой диапазон : Limited
Основные цвета : BT.709
Характеристики трансфера : BT.709
Коэффициенты матрицы : BT.709

Аудио #1
Идентификатор : 2
Формат : AC-3
Формат/Информация : Audio Coding 3
Параметр Endianness формата : Big
Идентификатор кодека : A_AC3
Продолжительность : 2 ч. 1 м.
Вид битрейта : Постоянный
Битрейт : 192 Кбит/сек
Каналы : 2 канала
Расположение каналов : Front: L R
Частота : 48,0 КГц
Частота кадров : 31,250 кадров/сек (1536 spf)
Битовая глубина : 16 бит
Метод сжатия : С потерями
Размер потока : 167 Мбайт (1%)
Заголовок : AVO
Язык : Russian
Default : Да
Forced : Нет

Аудио #2
Идентификатор : 3
Формат : AC-3
Формат/Информация : Audio Coding 3
Параметр Endianness формата : Big
Идентификатор кодека : A_AC3
Продолжительность : 2 ч. 1 м.
Вид битрейта : Постоянный
Битрейт : 192 Кбит/сек
Каналы : 2 канала
Расположение каналов : Front: L R
Частота : 48,0 КГц
Частота кадров : 31,250 кадров/сек (1536 spf)
Битовая глубина : 16 бит
Метод сжатия : С потерями
Размер потока : 167 Мбайт (1%)
Заголовок : VO
Язык : Russian
Default : Нет
Forced : Нет

Аудио #3
Идентификатор : 4
Формат : DTS
Формат/Информация : Digital Theater Systems
Профиль формата : MA / Core
Режим : 16
Параметр Endianness формата : Big
Идентификатор кодека : A_DTS
Продолжительность : 2 ч. 1 м.
Вид битрейта : Переменный / Постоянный
Битрейт : 3840 Кбит/сек / 1509 Кбит/сек
Каналы : 6 каналов
Расположение каналов : Front: L C R, Side: L R, LFE
Частота : 48,0 КГц
Частота кадров : 93,750 кадра/сек (512 spf)
Битовая глубина : 24 бит
Метод сжатия : Без потерь / Lossy
Размер потока : 3,26 Гбайт (10%)
Заголовок : VO
Язык : Russian
Default : Нет
Forced : Нет

Аудио #4
Идентификатор : 5
Формат : DTS
Формат/Информация : Digital Theater Systems
Профиль формата : MA / Core
Режим : 16
Параметр Endianness формата : Big
Идентификатор кодека : A_DTS
Продолжительность : 2 ч. 1 м.
Вид битрейта : Переменный / Постоянный
Битрейт : 3840 Кбит/сек / 1509 Кбит/сек
Каналы : 6 каналов
Расположение каналов : Front: L C R, Side: L R, LFE
Частота : 48,0 КГц
Частота кадров : 93,750 кадра/сек (512 spf)
Битовая глубина : 24 бит
Метод сжатия : Без потерь / Lossy
Размер потока : 3,25 Гбайт (10%)
Заголовок : original
Язык : English
Default : Нет
Forced : Нет

Текст #1
Идентификатор : 6
Формат : UTF-8
Идентификатор кодека : S_TEXT/UTF8
Идентификатор кодека/Информация : UTF-8 Plain Text
Продолжительность : 1 ч. 58 м.
Битрейт : 35 бит/сек
ElementCount : 551
Размер потока : 30,9 Кбайт (0%)
Заголовок : srt
Язык : Russian
Default : Нет
Forced : Нет

Текст #2
Идентификатор : 7
Формат : UTF-8
Идентификатор кодека : S_TEXT/UTF8
Идентификатор кодека/Информация : UTF-8 Plain Text
Продолжительность : 1 ч. 40 м.
Битрейт : 17 бит/сек
ElementCount : 427
Размер потока : 13,0 Кбайт (0%)
Заголовок : srt
Язык : English
Default : Нет
Forced : Нет

Меню
00:00:00.000 : en:00:00:00 (Chapter 1)
00:06:41.859 : en:00:06:41 (Chapter 2)
00:16:16.892 : en:00:16:16 (Chapter 3)
00:24:18.665 : en:00:24:18 (Chapter 4)
00:29:36.900 : en:00:29:36 (Chapter 5)
00:40:18.582 : en:00:40:18 (Chapter 6)
00:47:35.644 : en:00:47:35 (Chapter 7)
00:54:17.712 : en:00:54:17 (Chapter 8)
01:03:31.182 : en:01:03:31 (Chapter 9)
01:12:44.193 : en:01:12:44 (Chapter 10)
01:26:38.902 : en:01:26:38 (Chapter 11)
01:32:38.719 : en:01:32:38 (Chapter 12)
01:41:21.950 : en:01:41:21 (Chapter 13)
01:47:20.517 : en:01:47:20 (Chapter 14)
01:52:39.961 : en:01:52:39 (Chapter 15)
01:58:23.471 : en:01:58:23 (Chapter 16)
КУБКИ

СТАЖ

МЕДАЛИ
Награды:62

Лучший по количеству кубков (14) За отличные раздачи и качество (31) За подробное оформление раздач (1) За отличные комментарии (5) Почётный форумчанин (5) Верный Сид (2)

Аватара пользователя
Russia
Gogen
Заслуженный Релизёр-Корсар
  • Торрент
Для скачивания торрента необходимо зарегистрироваться или войти на трекер.

Сообщение dzalaev » 20 дек 2017, 18:23

Отличный римейк "Платы за страх" Клузо, по моему мнению, лучший фильм :good: Уильяма Фридкина, к сожалению незаслуженно забытый...Спасибо уважаемый Gogen :hi:
КУБКИ

СТАЖ

МЕДАЛИ
Награды:19

За активную помощь проекту (3) За отличные раздачи и качество (2) За отличные комментарии (9) Почётный форумчанин (2) Верный Сид (3)

Аватара пользователя
СССР
dzalaev
Уважаемый Корсар


Вернуться в Классика зарубежного кино (фильмы до 1980 года / HD Video)



Uptime по данным Ping-Admin.Ru - сервиса мониторинга доступности сайтов
Рейтинг@Mail.ru