logo
Международный русскоязычный
торрент-трекер
Menu
"Бунт на корабле", за скачанные торрент-файлы дублоны не снимаются. Возможность оплачена пользователем glazik9090.
Doublon
Поделиться с друзьями: 
Голосуй за Корсар и получи 500 дублонов
Рейтинг торрент трекеров - UpTracker.ru

Князь тьмы / Prince of Darkness (1987, ужасы, BDRemux 1080р)

Сообщение al1ksandr » 08 ноя 2019, 12:47

Название: Князь тьмы / Властелин тьмы
Оригинальное название: Prince of Darkness
Год выхода: 1987
Жанр: ужасы
Режиссер: Джон Карпентер
В ролях: Дональд Плезенс, Джеймисон Паркер, Виктор Вонг, Лиза Блаунт, Деннис Дун, Сьюзэн Блэнчард, Энн Мари Ховард, Энн Йен, Кен Райт, Дирк Блокер

О фильме: Группа ученых-исследователей во время изучения заброшенной церкви находит необычный сосуд. С помощью рентгеновских лучей им удается определить, что сосуду около 7 миллионов лет и, что самое интересное, его можно открыть только изнутри. В нем находится некая непонятная субстанция: жидкий алмаз, созданный какой-то таинственной силой.
В древней рукописи говорится, что в этом алмазе покоится сам Сатана или его дух. В результате экспериментов дьявольская сила, высвободившись из сосуда и рассеявшись в пространстве, начинает вселяться в исследователей, превращая их в рабов Сатаны.



Страна: США
Продолжительность: 01:41:38
Перевод: Авторский (одноголосый), профессиональный (многоголосый), профессиональный (двухголосый)

Качество: BDRemux 1080p
Видео: MPEG4-AVC, 1920x1080 (16:9), 30.4 Mbps, 23.976 fps
Звук:
№ 1:DTS-HD MA | 5.1 | 48.0 kHz | 3617 kbps - Авторский Дмитрий Есарев
№ 2:DTS-HD MA | 5.1 | 48.0 kHz | 3624 kbps - Авторский Вартан Дохалов
№ 3:DTS-HD MA | 5.1 | 48.0 kHz | 3647 kbps - Авторский Сергей Визгунов
№ 4:AC3 | 5.1 | 48.0 kHz | 448 kbps - Многоголосый, закадровый CP Digital
№ 5:AC3 | 2.0 | 48.0 kHz | 192 kbps - Многоголосый, закадровый OРТ
№ 6:AC3 | 2.0 | 48.0 kHz | 192 kbps - Двухголосый, закадровый Рен-ТВ
№ 7:DTS-HD MA | 5.1 | 48.0 kHz | 3568 kbps - English
Субтитры: Русские, английские

General
Unique ID : 106654922889493533429088829575679789576 (0x503CFDB045273180C469D50682A54A08)
Complete name : D:MKV-iP27Prince.of.Darkness.1987.BDRemux.[iP27].mkv
Format : Matroska
Format version : Version 4
File size : 31.7 GiB
Duration : 1 h 41 min
Overall bit rate mode : Variable
Overall bit rate : 44.7 Mb/s
Movie name : Prince of Darkness (Князь тьмы) 1987 - [iP27]
Encoded date : UTC 2019-10-30 09:26:55
Writing application : mkvmerge v38.0.0 ('The Silent Type') 64-bit
Writing library : libebml v1.3.9 + libmatroska v1.5.2

Video
ID : 1
Format : AVC
Format/Info : Advanced Video Codec
Format profile : High@L4.1
Format settings : CABAC / 3 Ref Frames
Format settings, CABAC : Yes
Format settings, Reference frames : 3 frames
Format settings, GOP : M=3, N=12
Codec ID : V_MPEG4/ISO/AVC
Duration : 1 h 39 min
Bit rate mode : Variable
Bit rate : 30.4 Mb/s
Maximum bit rate : 35.0 Mb/s
Width : 1 920 pixels
Height : 1 080 pixels
Display aspect ratio : 16:9
Frame rate mode : Constant
Frame rate : 23.976 (24000/1001) FPS
Standard : NTSC
Color space : YUV
Chroma subsampling : 4:2:0
Bit depth : 8 bits
Scan type : Progressive
Bits/(Pixel*Frame) : 0.611
Stream size : 21.1 GiB (66%)
Title : Prince of Darkness 1987 1080p Blu-ray AVC DTS-HD MA 5.1
Language : English
Default : No
Forced : No
Color range : Limited
Color primaries : BT.709
Transfer characteristics : BT.709
Matrix coefficients : BT.709

Audio #1
ID : 2
Format : DTS XLL
Format/Info : Digital Theater Systems
Commercial name : DTS-HD Master Audio
Codec ID : A_DTS
Duration : 1 h 41 min
Bit rate mode : Variable
Bit rate : 3 617 kb/s
Channel(s) : 6 channels
Channel layout : C L R Ls Rs LFE
Sampling rate : 48.0 kHz
Frame rate : 93.750 FPS (512 SPF)
Bit depth : 24 bits
Compression mode : Lossless
Stream size : 2.57 GiB (8%)
Title : AVO (Д. Есарев)
Language : Russian
Default : Yes
Forced : No

Audio #2
ID : 3
Format : DTS XLL
Format/Info : Digital Theater Systems
Commercial name : DTS-HD Master Audio
Codec ID : A_DTS
Duration : 1 h 39 min
Bit rate mode : Variable
Bit rate : 3 624 kb/s
Channel(s) : 6 channels
Channel layout : C L R Ls Rs LFE
Sampling rate : 48.0 kHz
Frame rate : 93.750 FPS (512 SPF)
Bit depth : 24 bits
Compression mode : Lossless
Stream size : 2.51 GiB (8%)
Title : AVO (В. Дохалов)
Language : Russian
Default : No
Forced : No

Audio #3
ID : 4
Format : DTS XLL
Format/Info : Digital Theater Systems
Commercial name : DTS-HD Master Audio
Codec ID : A_DTS
Duration : 1 h 39 min
Bit rate mode : Variable
Bit rate : 3 647 kb/s
Channel(s) : 6 channels
Channel layout : C L R Ls Rs LFE
Sampling rate : 48.0 kHz
Frame rate : 93.750 FPS (512 SPF)
Bit depth : 24 bits
Compression mode : Lossless
Stream size : 2.53 GiB (8%)
Title : AVO (С. Визгунов)
Language : Russian
Default : No
Forced : No

Audio #4
ID : 5
Format : AC-3
Format/Info : Audio Coding 3
Commercial name : Dolby Digital
Codec ID : A_AC3
Duration : 1 h 38 min
Bit rate mode : Constant
Bit rate : 448 kb/s
Channel(s) : 6 channels
Channel layout : L R C LFE Ls Rs
Sampling rate : 48.0 kHz
Frame rate : 31.250 FPS (1536 SPF)
Compression mode : Lossy
Stream size : 315 MiB (1%)
Title : MVO (CP Digital)
Language : Russian
Service kind : Complete Main
Default : No
Forced : No

Audio #5
ID : 6
Format : AC-3
Format/Info : Audio Coding 3
Commercial name : Dolby Digital
Codec ID : A_AC3
Duration : 1 h 38 min
Bit rate mode : Constant
Bit rate : 192 kb/s
Channel(s) : 2 channels
Channel layout : L R
Sampling rate : 48.0 kHz
Frame rate : 31.250 FPS (1536 SPF)
Compression mode : Lossy
Stream size : 135 MiB (0%)
Title : MVO (OРТ)
Language : Russian
Service kind : Complete Main
Default : No
Forced : No

Audio #6
ID : 7
Format : AC-3
Format/Info : Audio Coding 3
Commercial name : Dolby Digital
Codec ID : A_AC3
Duration : 1 h 38 min
Bit rate mode : Constant
Bit rate : 192 kb/s
Channel(s) : 2 channels
Channel layout : L R
Sampling rate : 48.0 kHz
Frame rate : 31.250 FPS (1536 SPF)
Compression mode : Lossy
Stream size : 135 MiB (0%)
Title : DVO (Рен-ТВ)
Language : Russian
Service kind : Complete Main
Default : No
Forced : No

Audio #7
ID : 8
Format : DTS XLL
Format/Info : Digital Theater Systems
Commercial name : DTS-HD Master Audio
Codec ID : A_DTS
Duration : 1 h 39 min
Bit rate mode : Variable
Bit rate : 3 568 kb/s
Channel(s) : 6 channels
Channel layout : C L R Ls Rs LFE
Sampling rate : 48.0 kHz
Frame rate : 93.750 FPS (512 SPF)
Bit depth : 24 bits
Compression mode : Lossless
Stream size : 2.48 GiB (8%)
Title : Original
Language : English
Default : No
Forced : No

Text #1
ID : 9
Format : UTF-8
Codec ID : S_TEXT/UTF8
Codec ID/Info : UTF-8 Plain Text
Duration : 1 h 37 min
Bit rate : 63 b/s
Count of elements : 731
Stream size : 45.2 KiB (0%)
Language : Russian
Default : No
Forced : No

Text #2
ID : 10
Format : UTF-8
Codec ID : S_TEXT/UTF8
Codec ID/Info : UTF-8 Plain Text
Duration : 1 h 35 min
Bit rate : 38 b/s
Count of elements : 734
Stream size : 26.9 KiB (0%)
Language : English
Default : No
Forced : No

Menu
00:00:00.000 : en:Chapter 1
00:10:27.627 : en:Chapter 2
00:18:34.113 : en:Chapter 3
00:25:00.123 : en:Chapter 4
00:33:07.610 : en:Chapter 5
00:40:40.438 : en:Chapter 6
00:47:54.079 : en:Chapter 7
00:55:27.949 : en:Chapter 8
01:02:02.343 : en:Chapter 9
01:09:38.799 : en:Chapter 10
01:17:06.622 : en:Chapter 11
01:24:24.059 : en:Chapter 12


Перевод Д. Есарева доступен благодаря DREADG. Работа со звуком - DREADG.
За С. Визгунова и В. Дохалова спасибо delo2006.
Спасибо Werewolf77 за ОРТ и Рен-ТВ. За синхронизацию звука благодарим JUSTKANT.
Текст читали: Рен-ТВ - Людмила Гнилова и Александр Белый
Текст читали: ОРТ - Анна Каменкова, Рудольф Панков, Владимир Антоник.
КУБКИ

СТАЖ

МЕДАЛИ
Награды:68

За активную помощь проекту (3) Лучший по количеству кубков (15) За отличные раздачи и качество (5) За отличные комментарии (13) Почётный форумчанин (27) Верный Сид (1) За участие в конкурсах/играх (2)

Аватара пользователя
СССР
al1ksandr
Опытный Модератор-Корсар
  • Торрент
Для скачивания торрента необходимо зарегистрироваться или войти на трекер.

Вернуться в Зарубежное кино (1981-1990 / HD Video)



cron
Uptime по данным Ping-Admin.Ru - сервиса мониторинга доступности сайтов
Рейтинг@Mail.ru