logo
Международный русскоязычный
торрент-трекер
Menu
Doublon
Поделиться с друзьями: 
Голосуй за Корсар и получи 500 дублонов
Рейтинг торрент трекеров - UpTracker.ru

Клятва мести / Sworn to Justice (1996, Боевик, драма, BDRip 720p) - KORSAR

Непрочитанное сообщение MZMA » 26 ноя 2018, 00:14

Название: Клятва мести
Оригинальное название: Sworn to Justice
Год выпуска: 1996
Выпущено: США, Amazing Movies, B Just Productions Inc.
Жанр: Боевик, драма
Режиссер: Пол Маслак
В ролях: Синтия Ротрок, Тони Ло Бьянко, Курт МакКинни, Мако, Кэти Митчел

О фильме: Работая психологом она часто пыталась понять что происходит в мыслях других людей, но теперь она может проникнуть намного дальше, чем могла предположить. И это поможет стать ей оружием мести для тех, кто убил ее семью, хотя об этом ли просила ее сестра? И поможет ли это сохранить ее любовь? Только месть сможет унять боль утраты близких ей людей. Неумолимая мстительница становится совершенным орудием возмездия. Лишь она способна найти и покарать убийц. Правосудие неудержимо влечет ее за границы закона…



Продолжительность: 01:37:18
Перевод: Авторский
Субтитры: Английские
Навигация по главам: Есть

Качество: BDRip 720p
Видео: MPEG-4 AVC, 4491 Кбит/сек, 1280x720, 23,976 кадра/сек
Аудио #1: AC3, 2 ch, 192 Кбит/сек | Русский, авторский (одноголосый закадровый) Михаил Иванов
Аудио #2: AC3, 2 ch, 224 Кбит/сек | Английский, оригинал

Релиз от:


x264 [info]: frame I:920 Avg QP:13.28 size: 87066
x264 [info]: frame P:32562 Avg QP:15.12 size: 40834
x264 [info]: frame B:106484 Avg QP:16.78 size: 17500
-----------------------------------------------------
Общее
Уникальный идентификатор : 238810121857303228133744333161762248256 (0xB3A9280E77FB4470A3D05203D9D5D640)
Полное имя : Клятва.мести.1996.BDRip.720p.KORSAR.mkv
Формат : Matroska
Версия формата : Version 2
Размер файла : 3,33 Гбайт
Продолжительность : 1 ч. 37 м.
Общий поток : 4904 Кбит/сек
Дата кодирования : UTC 2018-11-25 20:23:48
Программа кодирования : mkvmerge v5.8.0 ('No Sleep / Pillow') built on Sep 2 2012 15:37:04
Библиотека кодирования : libebml v1.2.3 + libmatroska v1.3.0

Видео
Идентификатор : 1
Формат : AVC
Формат/Информация : Advanced Video Codec
Профиль формата : High@L4.1
Настройки формата : CABAC / 9 Ref Frames
Параметр CABAC формата : Да
Параметр RefFrames формата : 9 кадров
Идентификатор кодека : V_MPEG4/ISO/AVC
Продолжительность : 1 ч. 37 м.
Битрейт : 4491 Кбит/сек
Ширина : 1280 пикселей
Высота : 720 пикселей
Соотношение сторон : 16:9
Режим частоты кадров : Постоянный
Частота кадров : 23,976 (24000/1001) кадра/сек
Цветовое пространство : YUV
Субдискретизация насыщенности : 4:2:0
Битовая глубина : 8 бит
Тип развёртки : Прогрессивная
Бит/(Пиксели*Кадры) : 0.203
Размер потока : 2,98 Гбайт (90%)
Заголовок : RIP | MZMA
Библиотека кодирования : x264 core 152 r2851kMod ba24899
Настройки программы : cabac=1 / ref=9 / deblock=1:-2:-2 / analyse=0x3:0x113 / me=umh / subme=11 / psy=1 / fade_compensate=0.00 / psy_rd=1.00:0.00 / mixed_ref=1 / me_range=48 / chroma_me=1 / trellis=2 / 8x8dct=1 / cqm=0 / deadzone=21,11 / fast_pskip=0 / chroma_qp_offset=-2 / threads=6 / lookahead_threads=1 / sliced_threads=0 / nr=0 / decimate=0 / interlaced=0 / bluray_compat=0 / constrained_intra=0 / bframes=16 / b_pyramid=2 / b_adapt=2 / b_bias=0 / direct=3 / weightb=1 / open_gop=0 / weightp=2 / keyint=240 / keyint_min=23 / scenecut=40 / intra_refresh=0 / rc_lookahead=40 / rc=2pass / mbtree=0 / bitrate=4491 / ratetol=1.0 / qcomp=0.60 / qpmin=0 / qpmax=69 / qpstep=4 / cplxblur=20.0 / qblur=0.5 / vbv_maxrate=50000 / vbv_bufsize=62500 / nal_hrd=none / filler=0 / ip_ratio=1.32 / pb_ratio=1.30 / aq=1:1.00
Язык : English
По умолчанию : Да
Принудительно : Нет
Цветовой диапазон : Limited
Основные цвета : BT.709
Характеристики трансфера : BT.709
Коэффициенты матрицы : BT.709

Аудио #1
Идентификатор : 2
Формат : AC-3
Формат/Информация : Audio Coding 3
Идентификатор кодека : A_AC3
Продолжительность : 1 ч. 37 м.
Вид битрейта : Постоянный
Битрейт : 192 Кбит/сек
Каналы : 2 канала
Расположение каналов : Front: L R
Частота : 48,0 КГц
Частота кадров : 31,250 кадров/сек (1536 SPF)
Битовая глубина : 16 бит
Метод сжатия : С потерями
Размер потока : 134 Мбайт (4%)
Заголовок : AVO | М. Иванов
Язык : Russian
По умолчанию : Да
Принудительно : Нет

Аудио #2
Идентификатор : 3
Формат : AC-3
Формат/Информация : Audio Coding 3
Идентификатор кодека : A_AC3
Продолжительность : 1 ч. 37 м.
Вид битрейта : Постоянный
Битрейт : 224 Кбит/сек
Каналы : 2 канала
Расположение каналов : Front: L R
Частота : 48,0 КГц
Частота кадров : 31,250 кадров/сек (1536 SPF)
Битовая глубина : 16 бит
Метод сжатия : С потерями
Размер потока : 156 Мбайт (5%)
Заголовок : Original
Язык : English
По умолчанию : Нет
Принудительно : Нет

Текст
Идентификатор : 4
Формат : UTF-8
Идентификатор кодека : S_TEXT/UTF8
Идентификатор кодека/Информация : UTF-8 Plain Text
Язык : English
По умолчанию : Нет
Принудительно : Нет

Меню
00:00:00.000 : en:Chapter 01
00:08:03.974 : en:Chapter 02
00:16:05.697 : en:Chapter 03
00:24:50.497 : en:Chapter 04
00:32:31.374 : en:Chapter 05
00:38:26.971 : en:Chapter 06
00:50:27.482 : en:Chapter 07
00:56:29.344 : en:Chapter 08
01:04:20.898 : en:Chapter 09
01:12:03.485 : en:Chapter 10
01:21:39.936 : en:Chapter 11
01:29:29.530 : en:Chapter 12

Просьба отключить блокировщики рекламы на странице скриншотов по адресу: http://3.lostpic.net/, этим Вы поможете существованию проекта. Заранее спасибо!
При скачивании раздач данного релизёра, дублоны не снимаются, а за сидирование установлен максимальный коэффициент. Просьба ко всем, поддержать сидированием раздачи Леонида и сохранить о нём память!
КУБКИ

СТАЖ

МЕДАЛИ
Награды:124

За помощь проекту (4) Лучший по количеству кубков (16) За отличные раздачи и качество (58) За подробное оформление раздач (11) За отличные комментарии (5) Почётный форумчанин (4) Верный Сид (26)

Аватара пользователя
СССР
MZMA
Заслуженный Корсар-Вип+
Раздачи группы KORSAR разрешено перезаливать спустя 5 дней после публикации, с обязательным добавлением банера
  • Торрент
Для скачивания торрента необходимо зарегистрироваться или войти на трекер.

Непрочитанное сообщение kwazar312 » 27 ноя 2018, 11:46

О фильме «Клятва мести»
...........................................
Синтия Ротрок снялась в роли психолога-криминалиста и по-прежнему владеет карате, доказывая это в первые же минуты фильма. Грабители убивают ее сестру и десятилетнего племянника, и она клянется отомстить. Авторы, помимо смертоносного искусства кунфу, наделили героиню еще и экстрасенсорными способностями видеть прошедшее при дотрагивании до предметов. Драки и перестрелки разбавлены постельно-лестничными сценами - Синтия демонстрирует свое крепенькое телосложение с весьма убедительными формами. Очень хороший актер Тони Ло Бьянко в роли коррумпированного полицейского Бриггса. Через некоторое время Тони возьмет себе полное имя Энтони Ло Бьянка. (М. Иванов)
Уважаемый MZMA,большое спасибо за раздачу этого фильма.
КУБКИ

СТАЖ

МЕДАЛИ
Награды:128

За помощь проекту (12) Лучший по количеству кубков (39) За отличные раздачи и качество (2) За отличные комментарии (22) Почётный форумчанин (3) Верный Сид (44) За участие в конкурсах/играх (6)

Аватара пользователя
kwazar312
Заслуженный Корсар-Вип


Вернуться в Зарубежное кино (1991-2000 / HD Video)



Uptime по данным Ping-Admin.Ru - сервиса мониторинга доступности сайтов
Рейтинг@Mail.ru