logo
Международный русскоязычный
торрент-трекер
Menu
Doublon
Поделиться с друзьями: 
Голосуй за Корсар и получи 400 дублонов
Рейтинг торрент трекеров - UpTracker.ru

Клетка для кроликов / Rabbit-Proof Fence (2002, Драма, BDRip 720p) - KORSAR

Сообщение MZMA » 18 янв 2017, 08:08

Название: Клетка для кроликов
Оригинальное название: Rabbit-Proof Fence
Год выпуска: 2002
Выпущено: Австралия, Rumbalara Films, Australian Film Commission, The, Australian Film Finance Corporation (AFFC)
Жанр: Драма, экранизация
Режиссер: Филлип Нойс
В ролях: Эверлин Сампи, Тиана Сансбэри, Лаура Монахэн, Ниджали Лоуфорд, Дэвид Галпилил, Кеннет Брана, Миарн Лоуфорд, Дебора Мэйлман, Джейсон Кларк, Наташа Вэнганин

О фильме: Фильм снят по мотивам романа Дорис Пилкингтон «Follow the Rabbit-Proof Fence» (1996).
В начале прошлого века «цивилизованные» белые австралийцы пытались приручить своих «младших братьев», местных аборигенов. Приручив, использовать их для своих бытовых нужд. Для этого, к примеру, создавались специальные школы, в которых девочек обучали быть прислугами в обеспеченных семьях белых переселенцев. В одну из таких школ и попадают 14-летняя Молли, ее 8-летняя сестра Дэйзи и их 10-летняя кузина Трэйси. В неволе девочки долго не выдерживают, бегут обратно домой, который теперь от них — на расстоянии в полторы тысячи миль и оказываются совсем одни в пустынной местности, где только ограждение против кроликов остается их проводником по дороге в родной дом. Экранизация по произведению: Дорис Пилкингтон.



Продолжительность: 01:33:41
Перевод: Профессиональный двухголосый
Субтитры: Русские, английские
Навигация по главам: Есть

Качество: BDRip 720p
Видео: MPEG-4 AVC, 11142 Кбит/сек, 1280x544, 23,976 кадра/сек
Аудио #1: AC3, 6 ch, 384 Кбит/сек | Русский, профессиональный (двухголосый закадровый)
Аудио #2: AC3, 6 ch, 448 Кбит/сек | Английский, оригинал

Релиз от:


x264 [info]: frame I:835 Avg QP:17.55 size:157246
x264 [info]: frame P:27481 Avg QP:19.18 size: 82935
x264 [info]: frame B:106444 Avg QP:20.68 size: 50626
-----------------------------------------------------
Общее
Уникальный идентификатор : 177686184034360630649558054719460436299 (0x85AD1D3FB8C86EC59AB693AFF8EF694B)
Полное имя : Клетка.для.кроликов.2002.BDRip.720p.KORSAR.mkv
Формат : Matroska
Версия формата : Version 2
Размер файла : 7,81 Гбайт
Продолжительность : 1 ч. 33 м.
Общий поток : 11,9 Мбит/сек
Дата кодирования : UTC 2018-12-06 02:11:48
Программа кодирования : mkvmerge v5.8.0 ('No Sleep / Pillow') built on Sep 2 2012 15:37:04
Библиотека кодирования : libebml v1.2.3 + libmatroska v1.3.0

Видео
Идентификатор : 1
Формат : AVC
Формат/Информация : Advanced Video Codec
Профиль формата : High@L4.1
Настройки формата : CABAC / 12 Ref Frames
Параметр CABAC формата : Да
Параметр RefFrames формата : 12 кадров
Идентификатор кодека : V_MPEG4/ISO/AVC
Продолжительность : 1 ч. 33 м.
Битрейт : 11,1 Мбит/сек
Ширина : 1280 пикселей
Высота : 544 пикселя
Соотношение сторон : 2,35:1
Режим частоты кадров : Постоянный
Частота кадров : 23,976 (24000/1001) кадра/сек
Цветовое пространство : YUV
Субдискретизация насыщенности : 4:2:0
Битовая глубина : 8 бит
Тип развёртки : Прогрессивная
Бит/(Пиксели*Кадры) : 0.667
Размер потока : 7,11 Гбайт (91%)
Заголовок : RIP | MZMA
Библиотека кодирования : x264 core 152 r2851kMod ba24899
Настройки программы : cabac=1 / ref=12 / deblock=1:-2:-2 / analyse=0x3:0x113 / me=umh / subme=11 / psy=1 / fade_compensate=0.00 / psy_rd=1.00:0.00 / mixed_ref=1 / me_range=64 / chroma_me=1 / trellis=2 / 8x8dct=1 / cqm=0 / deadzone=21,11 / fast_pskip=0 / chroma_qp_offset=-2 / threads=6 / lookahead_threads=1 / sliced_threads=0 / nr=0 / decimate=0 / interlaced=0 / bluray_compat=0 / constrained_intra=0 / bframes=16 / b_pyramid=2 / b_adapt=2 / b_bias=0 / direct=3 / weightb=1 / open_gop=0 / weightp=2 / keyint=240 / keyint_min=23 / scenecut=40 / intra_refresh=0 / rc_lookahead=40 / rc=2pass / mbtree=0 / bitrate=11142 / ratetol=1.0 / qcomp=0.60 / qpmin=0 / qpmax=69 / qpstep=4 / cplxblur=20.0 / qblur=0.5 / vbv_maxrate=50000 / vbv_bufsize=62500 / nal_hrd=none / filler=0 / ip_ratio=1.25 / pb_ratio=1.30 / aq=3:0.70
Язык : English
По умолчанию : Да
Принудительно : Нет
Цветовой диапазон : Limited
Основные цвета : BT.709
Характеристики трансфера : BT.709
Коэффициенты матрицы : BT.709

Аудио #1
Идентификатор : 2
Формат : AC-3
Формат/Информация : Audio Coding 3
Идентификатор кодека : A_AC3
Продолжительность : 1 ч. 33 м.
Вид битрейта : Постоянный
Битрейт : 384 Кбит/сек
Каналы : 6 каналов
Расположение каналов : Front: L C R, Side: L R, LFE
Частота : 48,0 КГц
Частота кадров : 31,250 кадров/сек (1536 SPF)
Битовая глубина : 16 бит
Метод сжатия : С потерями
Размер потока : 257 Мбайт (3%)
Заголовок : DVO
Язык : Russian
По умолчанию : Да
Принудительно : Нет

Аудио #2
Идентификатор : 3
Формат : AC-3
Формат/Информация : Audio Coding 3
Идентификатор кодека : A_AC3
Продолжительность : 1 ч. 33 м.
Вид битрейта : Постоянный
Битрейт : 448 Кбит/сек
Каналы : 6 каналов
Расположение каналов : Front: L C R, Side: L R, LFE
Частота : 48,0 КГц
Частота кадров : 31,250 кадров/сек (1536 SPF)
Битовая глубина : 16 бит
Метод сжатия : С потерями
Размер потока : 300 Мбайт (4%)
Заголовок : Original
Язык : English
По умолчанию : Нет
Принудительно : Нет

Текст #1
Идентификатор : 4
Формат : UTF-8
Идентификатор кодека : S_TEXT/UTF8
Идентификатор кодека/Информация : UTF-8 Plain Text
Заголовок : DVO
Язык : Russian
По умолчанию : Нет
Принудительно : Нет

Текст #2
Идентификатор : 5
Формат : UTF-8
Идентификатор кодека : S_TEXT/UTF8
Идентификатор кодека/Информация : UTF-8 Plain Text
Язык : Russian
По умолчанию : Нет
Принудительно : Нет

Текст #3
Идентификатор : 6
Формат : UTF-8
Идентификатор кодека : S_TEXT/UTF8
Идентификатор кодека/Информация : UTF-8 Plain Text
Язык : English
По умолчанию : Нет
Принудительно : Нет

Текст #4
Идентификатор : 7
Формат : UTF-8
Идентификатор кодека : S_TEXT/UTF8
Идентификатор кодека/Информация : UTF-8 Plain Text
Заголовок : SDH
Язык : English
По умолчанию : Нет
Принудительно : Нет

Меню
00:00:00.000 : ru:01. Вступление
00:02:46.358 : ru:02. Птица-дух
00:05:36.070 : ru:03. Мистер Дьявол
00:09:14.580 : ru:04. Узаконенное насилие
00:15:20.028 : ru:05. Интернат для туземцев
00:24:14.645 : ru:06. Жестокие нравы
00:31:19.737 : ru:07. Спасение бегством
00:35:30.779 : ru:08. Долгий путь домой
00:42:32.075 : ru:09. Чувство милосердия
00:46:46.371 : ru:10. Символ надежды
00:52:45.855 : ru:11. Тревожная ночь
00:59:35.222 : ru:12. Запутанный след
01:03:15.901 : ru:13. Коварный путник
01:07:19.895 : ru:14. Смертельная ловушка
01:12:21.905 : ru:15. Знойное солнце
01:18:14.340 : ru:16. Долгожданная встреча
01:22:43.276 : ru:17. Эпилог
01:26:40.763 : ru:18. Титры

Последний раз редактировалось MZMA 19 мар 2017, 15:32, всего редактировалось 1 раз.
КУБКИ

СТАЖ

МЕДАЛИ
Награды:82

За помощь проекту (3) Лучший по количеству кубков (6) За отличные раздачи и качество (46) За подробное оформление раздач (11) Верный Сид (14)

Аватара пользователя
СССР
MZMA
Главный Модератор-Корсар
Раздачи группы KORSAR разрешено перезаливать спустя сутки после публикации
  • Торрент
Для скачивания торрента необходимо зарегистрироваться или войти на трекер.

Сообщение filbi1976 » 18 янв 2017, 09:20

Леонид, спасибо! :hi:
КУБКИ

СТАЖ

МЕДАЛИ
Награды:69

За помощь проекту (1) За отличные раздачи и качество (50) За отличные комментарии (1) Верный Сид (14) За участие в конкурсах/играх (1)

Аватара пользователя
Тортуга
filbi1976
Администратор-Корсар

Сообщение MZMA » 06 дек 2018, 05:43

Внимание! - раздача обновлена, WEB-DLRip заменён на BDRip.
КУБКИ

СТАЖ

МЕДАЛИ
Награды:82

За помощь проекту (3) Лучший по количеству кубков (6) За отличные раздачи и качество (46) За подробное оформление раздач (11) Верный Сид (14)

Аватара пользователя
СССР
MZMA
Главный Модератор-Корсар


Вернуться в Зарубежное кино (2001-2010)



Uptime по данным Ping-Admin.Ru - сервиса мониторинга доступности сайтов
Рейтинг@Mail.ru Голосуйте за наш сайт в каталоге Rubo.Ru