logo
Международный русскоязычный
торрент-трекер
Menu

Doublon
Поделиться с друзьями: 
Голосуй за Корсар и получи 400 дублонов
Рейтинг торрент трекеров - UpTracker.ru

Кингсайз / Kingsajz (1987, Комедия, сатира, DVDRip-AVC) - KORSAR

Сообщение MZMA » 18 дек 2016, 07:07

Название: Кингсайз
Оригинальное название: Kingsajz
Год выпуска: 1987
Выпущено: Польша, Zespol Filmowy "Kadr"
Жанр: Комедия, сатира
Режиссер: Юлиуш Махульский
В ролях: Яцек Хмельник, Ежи Штур, Катажина Фигура, Гжегож Хероминьский, Йоахим Лямжа, Мачей Козловский, Ян Махульский, Леонард Петрашак, Витольд Пыркош, Лиза Махульска

О фильме:
Шкафландия - это укрытая в подвалах Института Геологии страна гномов, которой деспотично правит сверхначальник Зловредный. У каждого из жителей этого дивного мира четко поставленное единственное задание и совсем мало прав. За читание запрещённой сказки о Снежной Королеве грозит заточение в дуршлаге. Но в народе жива легенда о лучшей действительности больших людей. Единственный способ проникнуть в желанный мир - это принять чудодейственный эликсир, Кингсайз, разработка которого ведётся в тайной лаборатории. К сожалению, доступ к нему имеют только гномы из верхушки власти. Расшифровав секретный рецепт, химик Адась решает совершить диверсию и осчастливить Кингсайзом каждого, кто перерос существование в Шкафландии.

Продолжительность: 01:44:33
Перевод: Дублированный (Советский дубляж) киностудия имени М. Горького 1989 год
Роли дублировали: Борис Токарев, Вадим Андреев, Наталья Казначеева, Алексей Панькин, Александр Новиков, Юрий Маляров, Даниил Нетребин, Рудольф Панков, Ирина Губанова

Качество: DVDRip-AVC
Видео: MPEG-4 AVC, 1989 Кбит/сек, 700x572@995x572, 25,000 кадров/сек
Аудио №1: AC3, 2 ch, 192 Кбит/сек | Русский (дубляж, киностудия имени М. Горького)
Аудио №2: AC3, 2 ch, 192 Кбит/сек | Польский (оригинал)
Субтитры: русские
Навигация по главам: есть


Общее
Уникальный идентификатор : 237991066947538257760398767933216026364 (0xB30B69881BA55078B4AA9EED10A86EFC)
Полное имя : Kingsajz.1987.DVDRip.AVC.mkv
Формат : Matroska
Версия формата : Version 2
Размер файла : 1,73 Гбайт
Продолжительность : 1 ч. 44 м.
Общий поток : 2376 Кбит/сек
Дата кодирования : UTC 2016-12-18 02:08:55
Программа кодирования : mkvmerge v3.4.0 ('Rapunzel') сборка от May 15 2010 09:38:20
Библиотека кодирования : libebml v0.8.0 + libmatroska v0.9.0

Видео
Идентификатор : 1
Формат : AVC
Формат/Информация : Advanced Video Codec
Профиль формата : High@L4.1
Параметр CABAC формата : Да
Параметр ReFrames формата : 16 кадров
Идентификатор кодека : V_MPEG4/ISO/AVC
Продолжительность : 1 ч. 44 м.
Битрейт : 1989 Кбит/сек
Ширина : 700 пикселей
Высота : 572 пикселя
Соотношение сторон : 16:9
Режим частоты кадров : Постоянный
Частота кадров : 25,000 кадров/сек
Цветовое пространство : YUV
Субдискретизация насыщенности : 4:2:0
Битовая глубина : 8 бит
Тип развёртки : Прогрессивная
Бит/(Пиксели*Кадры) : 0.199
Размер потока : 1,42 Гбайт (82%)
Библиотека кодирования : x264 core 148 r2721kMod 72d53ab
Настройки программы : cabac=1 / ref=16 / deblock=1:-2:-2 / analyse=0x3:0x133 / me=umh / subme=11 / psy=1 / fade_compensate=0.00 / psy_rd=1.00:0.10 / mixed_ref=1 / me_range=48 / chroma_me=1 / trellis=2 / 8x8dct=1 / cqm=0 / deadzone=21,11 / fast_pskip=0 / chroma_qp_offset=-3 / threads=6 / lookahead_threads=1 / sliced_threads=0 / nr=0 / decimate=0 / interlaced=0 / bluray_compat=0 / constrained_intra=0 / fgo=0 / bframes=16 / b_pyramid=2 / b_adapt=2 / b_bias=0 / direct=3 / weightb=1 / open_gop=0 / weightp=2 / keyint=250 / keyint_min=25 / scenecut=40 / intra_refresh=0 / rc_lookahead=40 / rc=2pass / mbtree=0 / bitrate=1989 / ratetol=1.0 / qcomp=0.60 / qpmin=0 / qpmax=69 / qpstep=4 / cplxblur=20.0 / qblur=0.5 / vbv_maxrate=50000 / vbv_bufsize=62500 / nal_hrd=none / filler=0 / ip_ratio=1.40 / pb_ratio=1.30 / aq=1:1.00
Default : Нет
Forced : Нет

Аудио #1
Идентификатор : 2
Формат : AC-3
Формат/Информация : Audio Coding 3
Расширение режима : CM (complete main)
Параметр Endianness формата : Big
Идентификатор кодека : A_AC3
Продолжительность : 1 ч. 44 м.
Вид битрейта : Постоянный
Битрейт : 192 Кбит/сек
Каналы : 2 канала
Расположение каналов : Front: L R
Частота : 48,0 КГц
Частота кадров : 31,250 кадров/сек (1536 spf)
Битовая глубина : 16 бит
Метод сжатия : С потерями
Размер потока : 144 Мбайт (8%)
Язык : Russian
Default : Да
Forced : Нет

Аудио #2
Идентификатор : 3
Формат : AC-3
Формат/Информация : Audio Coding 3
Расширение режима : CM (complete main)
Параметр Endianness формата : Big
Идентификатор кодека : A_AC3
Продолжительность : 1 ч. 44 м.
Вид битрейта : Постоянный
Битрейт : 192 Кбит/сек
Каналы : 2 канала
Расположение каналов : Front: L R
Частота : 48,0 КГц
Частота кадров : 31,250 кадров/сек (1536 spf)
Битовая глубина : 16 бит
Метод сжатия : С потерями
Размер потока : 144 Мбайт (8%)
Язык : Polish
Default : Нет
Forced : Нет

Текст
Идентификатор : 4
Формат : UTF-8
Идентификатор кодека : S_TEXT/UTF8
Идентификатор кодека/Информация : UTF-8 Plain Text
Язык : Russian
Default : Нет
Forced : Нет

Меню
00:00:00.000 : en:Chapter 1
00:08:26.640 : en:Chapter 2
00:15:13.080 : en:Chapter 3
00:22:42.880 : en:Chapter 4
00:33:15.200 : en:Chapter 5
00:38:24.120 : en:Chapter 6
00:49:14.040 : en:Chapter 7
00:54:45.080 : en:Chapter 8
01:04:27.880 : en:Chapter 9
01:17:46.120 : en:Chapter 10
01:29:03.920 : en:Chapter 11
01:39:45.320 : en:Chapter 12


Последний раз редактировалось MZMA 19 мар 2017, 15:40, всего редактировалось 1 раз.
КУБКИ

СТАЖ

МЕДАЛИ
Награды:78

За помощь проекту (3) Лучший по количеству кубков (6) За отличные раздачи и качество (44) За подробное оформление раздач (11) Верный Сид (12)

Аватара пользователя
СССР
MZMA
Главный Модератор-Корсар
Раздачи группы KORSAR разрешено перезаливать спустя сутки после публикации
  • Торрент
Для скачивания торрента необходимо зарегистрироваться или войти на трекер.

Сообщение filbi1976 » 18 дек 2016, 11:18

Леонид, спасибо! :hi:
КУБКИ

СТАЖ

МЕДАЛИ
Награды:65

За помощь проекту (1) За отличные раздачи и качество (49) Верный Сид (12) За участие в конкурсах/играх (1)

Аватара пользователя
Тортуга
filbi1976
Администратор-Корсар

Сообщение verybigpapa » 24 сен 2018, 19:43

Уважаемый mzma, большое спасибо. :hi: :respect:
Улыбайтесь, господа! Улыбайтесь!
КУБКИ

СТАЖ

МЕДАЛИ
Награды:39

За помощь проекту (15) Лучший по количеству кубков (9) За отличные комментарии (5) Верный Сид (10)

Аватара пользователя
СССР
verybigpapa
Заслуженный Корсар-Вип


Вернуться в Зарубежное кино (1981-1990)



Uptime по данным Ping-Admin.Ru - сервиса мониторинга доступности сайтов
Рейтинг@Mail.ru Голосуйте за наш сайт в каталоге Rubo.Ru