logo
Международный русскоязычный
торрент-трекер
Menu

Doublon
Поделиться с друзьями: 
Голосуй за Корсар и получи 150 дублонов
Рейтинг торрент трекеров - UpTracker.ru

Карлик Нос / Zwerg Nase (1978, Cказка, DVDRip-AVC) - KORSAR

Сообщение filbi1976 » 24 май 2018, 11:55

Карлик Нос / Zwerg Nase

Страна: ГДР
Жанр: сказка
Год выпуска: 1978
Продолжительность: 01:14:37
Перевод: Любительский (многоголосый закадровый)
Перевод 2: Одноголосый закадровый (Иван Сафронов)
Субтитры: русские
Режиссер: Карл-Хайнц Балс / Karl-Heinz Bahls
В ролях: Матиас Глугла, Кармен-Майя Антони, Питер Яхода, Дорис Абессер, Моника Войтович

Описание: Фильм снят по сказке Вильгельма Гауфа "Карлик Нос". Для того чтобы осуществить свои коварные планы, злой колдунье нужен сын сапожника по имени Якоб - мальчик с добрым сердцем.
Якоб отказывается участвовать в ее злодеяниях, и ведьма превращает его в карлика и переносит на семь лет вперед...



Кодек: х264
Качество: DVDRip-AVC
Видео: MPEG-4 AVC, 692x570@738x570, 25 fps, 2493 Кбит/с
Звук: AC3, 2 ch, 192 Кбит/с



  • x264 [info]: frame I:553 Avg QP:18.57 size: 67239
  • x264 [info]: frame P:29905 Avg QP:20.51 size: 28813
  • x264 [info]: frame B:81479 Avg QP:22.34 size: 6482
Общее
Уникальный идентификатор : 228305845704582792345933615987341550933 (0xABC21B41C199D0FEBBEFAE29DCE26555)
Полное имя : D:\Карлик Нос_19978-DVDRip-AVC_KORSAR.mkv
Формат : Matroska
Версия формата : Version 2
Размер файла : 1,53 Гбайт
Продолжительность : 1 ч. 14 м.
Общий поток : 2936 Кбит/сек
Дата кодирования : UTC 2018-05-24 08:54:16
Программа кодирования : mkvmerge v5.8.0 ('No Sleep / Pillow') built on Sep 2 2012 15:37:04
Библиотека кодирования : libebml v1.2.3 + libmatroska v1.3.0

Видео
Идентификатор : 1
Формат : AVC
Формат/Информация : Advanced Video Codec
Профиль формата : High@L4.1
Параметр CABAC формата : Да
Параметр RefFrames формата : 14 кадров
Идентификатор кодека : V_MPEG4/ISO/AVC
Продолжительность : 1 ч. 14 м.
Битрейт : 2493 Кбит/сек
Ширина : 692 пикселя
Высота : 570 пикселей
Соотношение сторон : 1,295
Режим частоты кадров : Постоянный
Частота кадров : 25,000 кадров/сек
Цветовое пространство : YUV
Субдискретизация насыщенности : 4:2:0
Битовая глубина : 8 бит
Тип развёртки : Прогрессивная
Бит/(Пиксели*Кадры) : 0.253
Размер потока : 1,30 Гбайт (85%)
Библиотека кодирования : x264 core 152 r2851kMod ba24899
Настройки программы : cabac=1 / ref=14 / deblock=1:-2:-1 / analyse=0x3:0x133 / me=umh / subme=10 / psy=1 / fade_compensate=0.00 / psy_rd=1.05:0.10 / mixed_ref=1 / me_range=40 / chroma_me=1 / trellis=2 / 8x8dct=1 / cqm=0 / deadzone=21,11 / fast_pskip=1 / chroma_qp_offset=-3 / threads=12 / lookahead_threads=2 / sliced_threads=0 / nr=0 / decimate=1 / interlaced=0 / bluray_compat=0 / constrained_intra=0 / bframes=8 / b_pyramid=2 / b_adapt=2 / b_bias=0 / direct=1 / weightb=1 / open_gop=0 / weightp=2 / keyint=250 / keyint_min=25 / scenecut=40 / intra_refresh=0 / rc=crf / mbtree=0 / crf=17.8000 / qcomp=0.63 / qpmin=0 / qpmax=39 / qpstep=4 / ip_ratio=1.40 / pb_ratio=1.30 / aq=1:1.00
Язык : English
Default : Да
Forced : Нет
Цветовой диапазон : Limited
Основные цвета : BT.601 PAL
Характеристики трансфера : BT.470 System B, BT.470 System G
Коэффициенты матрицы : BT.601

Аудио #1
Идентификатор : 2
Формат : AC-3
Формат/Информация : Audio Coding 3
Параметр Endianness формата : Big
Идентификатор кодека : A_AC3
Продолжительность : 1 ч. 14 м.
Вид битрейта : Постоянный
Битрейт : 192 Кбит/сек
Каналы : 2 канала
Расположение каналов : Front: L R
Частота : 48,0 КГц
Частота кадров : 31,250 кадров/сек (1536 SPF)
Битовая глубина : 16 бит
Метод сжатия : С потерями
Размер потока : 102 Мбайт (7%)
Заголовок : MVO
Язык : Russian
ServiceKind/String : Complete Main
Default : Да
Forced : Нет

Аудио #2
Идентификатор : 3
Формат : AC-3
Формат/Информация : Audio Coding 3
Параметр Endianness формата : Big
Идентификатор кодека : A_AC3
Продолжительность : 1 ч. 14 м.
Вид битрейта : Постоянный
Битрейт : 192 Кбит/сек
Каналы : 2 канала
Расположение каналов : Front: L R
Частота : 48,0 КГц
Частота кадров : 31,250 кадров/сек (1536 SPF)
Битовая глубина : 16 бит
Метод сжатия : С потерями
Размер потока : 102 Мбайт (7%)
Заголовок : AVO
Язык : Russian
ServiceKind/String : Complete Main
Default : Нет
Forced : Нет

Текст
Идентификатор : 4
Формат : UTF-8
Идентификатор кодека : S_TEXT/UTF8
Идентификатор кодека/Информация : UTF-8 Plain Text
Язык : Russian
Default : Нет
Forced : Нет

Аватара пользователя
filbi1976
Администратор-Корсар
 
 

Награды: 43
За отличные раздачи и качество (32) Верный Сид (8) За участие в конкурсах (1)
Раздачи группы KORSAR разрешено перезаливать спустя сутки после публикации
  • Торрент
Для скачивания торрента необходимо зарегистрироваться или войти на трекер.

Сообщение podruzhka » 24 май 2018, 14:07

Ой спасибочки, забираю в коллекцию!!!) :-dance2:
Аватара пользователя
podruzhka
Заслуженный Корсар-Вип
 
 

Награды: 7
За помощь проекту (2) За отличные комментарии (3) Верный Сид (2)

Сообщение hodigor » 24 май 2018, 20:07

Дорогой filbi1976, от всей души благодарю Вас за выполненный заказ. Отличная сказка, мой любимый фильм детства. filbi1976, желаю Вам скорейшего выздоровления, добра и никогда не унывать. С большим уважением hodigor.
Аватара пользователя
hodigor
Заслуженный Корсар-Вип
 
 

Награды: 8
За помощь проекту (3) За отличные комментарии (4) Верный Сид (1)

Сообщение filbi1976 » 25 май 2018, 10:58

Всем пожалуйста! :hi:
Аватара пользователя
filbi1976
Администратор-Корсар
 
 

Награды: 43
За отличные раздачи и качество (32) Верный Сид (8) За участие в конкурсах (1)

Сообщение alcominimalist » 25 май 2018, 11:58

Спасибо! :hi: Хорошая сказка. Жаль что нет советского дубляжа.
Аватара пользователя
alcominimalist
Заслуженный Корсар-Вип
 
 

Награды: 23
За помощь проекту (1) Лучший по количеству кубков (3) За отличные комментарии (8) Почётный форумчанин (3) Верный Сид (5) За участие в конкурсах (3)


Вернуться в Классика зарубежного кино (фильмы до 1980 года)



Uptime по данным Ping-Admin.Ru - сервиса мониторинга доступности сайтов
Рейтинг@Mail.ru