logo
Международный русскоязычный
торрент-трекер
Menu
"Бунт на корабле", за скачанные торрент-файлы дублоны не снимаются. Возможность оплачена пользователем маклаут.
Doublon
Поделиться с друзьями: 
Голосуй за Корсар и получи 500 дублонов
Рейтинг торрент трекеров - UpTracker.ru

Каприз / Caprice (1967, комедия, боевик, BDRip 1080p)

Сообщение kisa1980 » 14 янв 2020, 18:18

Название: Каприз
Оригинальное название: Caprice
Год выпуска: 1967
Жанр: Комедия, боевик
Режиссер: Фрэнк Тэшлин
В ролях: Дорис Дэй, Ричард Харрис, Рей Уолстон, Джек Крушен, Эдвард Малхейр, Лилия Скала, Ирэн Тсу, Ларри Д. Манн, Морис Марсак, Майкл Романофф

Описание: В картине присутствуют элементы комедии, боевика, сатиры и психологического детектива. В основе сюжета шпиономания, сфера деятельности — производство косметики. Главные герои Патрисия Фостер и Кристофер Уайт только и делают, что пытаются провести друг друга.



Страна: США
Продолжительность: 01:37:36
Перевод: Профессиональный (многоголосый закадровый)

Качество: BDRip 1080p
Формат: MKV
Видео: MPEG4 Video (H264), 1920x808, 23.976fps, 9000 kbps
Аудио 1: Русский, Dolby AC3, 48000 Hz, 2ch, 192 kbps - Многоголосый, Первый канал
Аудио 2: Английский, Dolby AC3, 48000 Hz, 2ch, 192 kbps - Оригинал
Субтитры: Русские, английские

Релиз от: likko



General
Unique ID : 224354047348547481341940084347351459052 (0xA8C9048E1A1A7AE6909FAA31149DE4EC)
Complete name : D:Torrent21967.Caprice.likko.mkv
Format : Matroska
Format version : Version 4
File size : 6.40 GiB
Duration : 1 h 37 min
Overall bit rate : 9 386 kb/s
Movie name : 1967 Каприз/likko
Encoded date : UTC 2020-01-14 14:48:38
Writing application : mkvmerge v8.3.0 ('Over the Horizon') 64bit
Writing library : libebml v1.3.1 + libmatroska v1.4.2

Video
ID : 1
Format : AVC
Format/Info : Advanced Video Codec
Format profile : High@L4.1
Format settings : CABAC / 5 Ref Frames
Format settings, CABAC : Yes
Format settings, Reference : 5 frames
Codec ID : V_MPEG4/ISO/AVC
Duration : 1 h 37 min
Bit rate : 9 000 kb/s
Width : 1 920 pixels
Height : 808 pixels
Display aspect ratio : 2.40:1
Frame rate mode : Constant
Frame rate : 23.976 (24000/1001) FPS
Color space : YUV
Chroma subsampling : 4:2:0
Bit depth : 8 bits
Scan type : Progressive
Bits/(Pixel*Frame) : 0.242
Stream size : 6.14 GiB (96%)
Title : 1967 Каприз
Writing library : x264 core 148 r2638 7599210
Encoding settings : cabac=1 / ref=5 / deblock=1:-1:-1 / analyse=0x3:0x133 / me=umh / subme=11 / psy=1 / psy_rd=1.00:0.15 / mixed_ref=1 / me_range=48 / chroma_me=1 / trellis=2 / 8x8dct=1 / cqm=0 / deadzone=21,11 / fast_pskip=0 / chroma_qp_offset=-3 / threads=18 / lookahead_threads=4 / sliced_threads=0 / nr=0 / decimate=1 / interlaced=0 / bluray_compat=0 / constrained_intra=0 / bframes=10 / b_pyramid=2 / b_adapt=2 / b_bias=0 / direct=3 / weightb=1 / open_gop=0 / weightp=2 / keyint=250 / keyint_min=23 / scenecut=40 / intra_refresh=0 / rc=2pass / mbtree=0 / bitrate=9000 / ratetol=1.0 / qcomp=0.60 / qpmin=0 / qpmax=69 / qpstep=4 / cplxblur=20.0 / qblur=0.5 / ip_ratio=1.40 / pb_ratio=1.30 / aq=2:1.00
Language : English
Default : Yes
Forced : No

Audio #1
ID : 2
Format : AC-3
Format/Info : Audio Coding 3
Commercial name : Dolby Digital
Codec ID : A_AC3
Duration : 1 h 37 min
Bit rate mode : Constant
Bit rate : 192 kb/s
Channel(s) : 2 channels
Channel layout : L R
Sampling rate : 48.0 kHz
Frame rate : 31.250 FPS (1536 SPF)
Compression mode : Lossy
Stream size : 134 MiB (2%)
Title : Многоголосый, 1 канал
Language : Russian
Service kind : Complete Main
Default : Yes
Forced : No

Audio #2
ID : 3
Format : AC-3
Format/Info : Audio Coding 3
Commercial name : Dolby Digital
Codec ID : A_AC3
Duration : 1 h 37 min
Bit rate mode : Constant
Bit rate : 192 kb/s
Channel(s) : 2 channels
Channel layout : L R
Sampling rate : 48.0 kHz
Frame rate : 31.250 FPS (1536 SPF)
Compression mode : Lossy
Stream size : 134 MiB (2%)
Language : English
Service kind : Complete Main
Default : No
Forced : No

Text #1
ID : 4
Format : UTF-8
Codec ID : S_TEXT/UTF8
Codec ID/Info : UTF-8 Plain Text
Duration : 1 h 34 min
Bit rate : 117 b/s
Count of elements : 1123
Stream size : 81.4 KiB (0%)
Language : Russian
Default : No
Forced : No

Text #2
ID : 5
Format : UTF-8
Codec ID : S_TEXT/UTF8
Codec ID/Info : UTF-8 Plain Text
Duration : 1 h 36 min
Bit rate : 65 b/s
Count of elements : 1247
Stream size : 46.2 KiB (0%)
Language : English
Default : No
Forced : No

Menu
00:00:00.000 : en:Chapter 01
00:07:27.405 : en:Chapter 02
00:12:51.854 : en:Chapter 03
00:18:42.412 : en:Chapter 04
00:27:10.211 : en:Chapter 05
00:40:56.620 : en:Chapter 06
00:48:51.511 : en:Chapter 07
00:58:54.697 : en:Chapter 08
01:13:19.770 : en:Chapter 09
01:19:33.935 : en:Chapter 10
01:27:53.768 : en:Chapter 11
01:35:53.706 : en:Chapter 12
КУБКИ

СТАЖ

МЕДАЛИ
Награды:97

За активную помощь проекту (10) Лучший по количеству кубков (3) За отличные раздачи и качество (37) За подробное оформление раздач (6) За отличные комментарии (9) Почётный форумчанин (1) Верный Сид (28) За участие в конкурсах/играх (2)

Аватара пользователя
Тортуга
kisa1980
Главный помощник Администратора-Корсар
  • Торрент
Для скачивания торрента необходимо зарегистрироваться или войти на трекер.

Вернуться в Классика зарубежного кино (фильмы до 1980 года / HD Video)



Uptime по данным Ping-Admin.Ru - сервиса мониторинга доступности сайтов
Рейтинг@Mail.ru