logo
Международный русскоязычный
торрент-трекер
Menu
Doublon
Поделиться с друзьями: 
Голосуй за Корсар и получи 500 дублонов
Рейтинг торрент трекеров - UpTracker.ru

Капитан Марвел / Captain Marvel (2019, фантастика, боевик, приключения, BDRip 1080p) | 3D-Video | halfOU | IMAX Version | Лицензия

Сообщение kisa1980 » 04 июл 2019, 14:24

Название: Капитан Марвел
Оригинальное название: Captain Marvel
Год выпуска: 2019
Страна: США, Marvel Studios Inc
Жанр: Фантастика, боевик, приключения
Продолжительность: 02:03:42
Перевод: Профессиональный дублированный (лицензия)
Режиссеры: Анна Боден, Райан Флек / Anna Boden, Ryan Fleck
В ролях: Бри Ларсон, Сэмюэл Л. Джексон, Бен Мендельсон, Джуд Лоу, Аннетт Бенинг, Лашана Линч, Кларк Грегг, Рюн Темт, Джемма Чан, Альхенис Перес Сото, Джимон Хонсу, Ли Пейс, Чуку Моду, Мэттью Мехер, Акира Акбар, Марк Догерти, Стивен А. Чанг

Описание: После столкновения с враждующими инопланетными расами, пилот военно-воздушных сил Кэрол Дэнверс обретает суперсилу и становится неуязвимой. Героине предстоит совладать со своими новыми способностями, чтобы противостоять могущественному врагу.



Качество: BDRip 1080p
Контейнер: MKV
Формат 3D: Half OverUnder / Вертикальная анаморфная стереопара
Порядок ракурсов: левый ракурс первый
Видео: AVC / 1920х1080p / 23,976 fps / 9000 Kbps
Аудио:
#1 - Русский / AC3 / 48 KHz / 5.1 ch / 640 Kbps (Дубляж - Лицензия)
#2 - Украинский / AC3 / 48 KHz / 5.1 ch / 640 Kbps (Дубляж) (спасибо Hurtom!)
#3 - Английский / AC3 / 48 KHz / 5.1 ch / 640 Kbps (Original - BD 3D Eur)
Субтитры (SRT):
Вшитые (softsub):
#1 - Русские Форсированные (расширенные) (включены по умолчанию)
#2 - Русские Полные
#3 - Русские SDH
#4 - Украинские Форсированные [Ash61]
#5 - English Full
#6 - English SDH
Внешние (UTF-8):
#1 - Русские Форсированные (расширенные) (включены по умолчанию)
#2 - Русские SDH
#3 - Украинские Форсированные [Ash61]

General
Unique ID : 247777221486829915163916625207290505669 (0xBA682833C3932E0AA8EB2E89584429C5)
Complete name : J:CaptainMarvel(2019)3D-hOU(Ash61)CaptainMarvel(2019)3D-hOU(Ash61).mkv
Format : Matroska
Format version : Version 2
File size : 9.44 GiB
Duration : 2h 3mn
Overall bit rate : 10.9 Mbps
Movie name : Капитан Марвел / Captain Marvel (2019) in 3D
Encoded date : UTC 2019-07-04 09:23:57
Writing application : mkvmerge v5.8.0 ('No Sleep / Pillow') built on Sep 2 2012 15:37:04
Writing library : libebml v1.2.3 + libmatroska v1.3.0

Video
ID : 1
Format : AVC
Format/Info : Advanced Video Codec
Format profile : High@L4.1
Format settings, CABAC : Yes
Format settings, ReFrames : 4 frames
Codec ID : V_MPEG4/ISO/AVC
Duration : 2h 3mn
Bit rate : 9 000 Kbps
Width : 1 920 pixels
Height : 1 080 pixels
Display aspect ratio : 16:9
Frame rate mode : Constant
Frame rate : 23.976 (24000/1001) fps
Color space : YUV
Chroma subsampling : 4:2:0
Bit depth : 8 bits
Scan type : Progressive
Bits/(Pixel*Frame) : 0.181
Stream size : 7.59 GiB (80%)
Title : BDRip by Ash61
Writing library : x264 core 146 r2538 121396c
Encoding settings : cabac=1 / ref=4 / deblock=1:-3:-3 / analyse=0x3:0x113 / me=umh / subme=10 / psy=1 / psy_rd=1.00:0.00 / mixed_ref=1 / me_range=32 / chroma_me=1 / trellis=2 / 8x8dct=1 / cqm=0 / deadzone=21,11 / fast_pskip=0 / chroma_qp_offset=-2 / threads=12 / lookahead_threads=3 / sliced_threads=0 / nr=0 / decimate=0 / interlaced=0 / bluray_compat=0 / constrained_intra=0 / bframes=10 / b_pyramid=2 / b_adapt=2 / b_bias=0 / direct=3 / weightb=1 / open_gop=0 / weightp=2 / keyint=250 / keyint_min=23 / scenecut=40 / intra_refresh=0 / rc_lookahead=60 / rc=2pass / mbtree=0 / bitrate=9000 / ratetol=1.0 / qcomp=0.70 / qpmin=0 / qpmax=69 / qpstep=4 / cplxblur=20.0 / qblur=0.5 / vbv_maxrate=40000 / vbv_bufsize=30000 / nal_hrd=none / filler=0 / frame-packing=4 / ip_ratio=1.40 / pb_ratio=1.30 / aq=1:0.70
Language : English
Default : Yes
Forced : No

Audio #1
ID : 2
Format : AC-3
Format/Info : Audio Coding 3
Mode extension : CM (complete main)
Format settings, Endianness : Big
Codec ID : A_AC3
Duration : 2h 3mn
Bit rate mode : Constant
Bit rate : 640 Kbps
Channel(s) : 6 channels
Channel positions : Front: L C R, Side: L R, LFE
Sampling rate : 48.0 KHz
Frame rate : 31.250 fps (1536 spf)
Compression mode : Lossy
Stream size : 566 MiB (6%)
Title : Дубляж (BD Eur)
Language : Russian
Default : Yes
Forced : No

Audio #2
ID : 3
Format : AC-3
Format/Info : Audio Coding 3
Mode extension : CM (complete main)
Format settings, Endianness : Big
Codec ID : A_AC3
Duration : 2h 3mn
Bit rate mode : Constant
Bit rate : 640 Kbps
Channel(s) : 6 channels
Channel positions : Front: L C R, Side: L R, LFE
Sampling rate : 48.0 KHz
Frame rate : 31.250 fps (1536 spf)
Compression mode : Lossy
Stream size : 566 MiB (6%)
Title : Дубляж
Language : Ukrainian
Default : No
Forced : No

Audio #3
ID : 4
Format : AC-3
Format/Info : Audio Coding 3
Mode extension : CM (complete main)
Format settings, Endianness : Big
Codec ID : A_AC3
Duration : 2h 3mn
Bit rate mode : Constant
Bit rate : 640 Kbps
Channel(s) : 6 channels
Channel positions : Front: L C R, Side: L R, LFE
Sampling rate : 48.0 KHz
Frame rate : 31.250 fps (1536 spf)
Compression mode : Lossy
Stream size : 566 MiB (6%)
Title : Original (BD 3D Eur)
Language : English
Default : No
Forced : No

Text #1
ID : 5
Format : UTF-8
Codec ID : S_TEXT/UTF8
Codec ID/Info : UTF-8 Plain Text
Title : Форсированные (расширенные)
Language : Russian
Default : Yes
Forced : No

Text #2
ID : 6
Format : UTF-8
Codec ID : S_TEXT/UTF8
Codec ID/Info : UTF-8 Plain Text
Title : Полные
Language : Russian
Default : No
Forced : No

Text #3
ID : 7
Format : UTF-8
Codec ID : S_TEXT/UTF8
Codec ID/Info : UTF-8 Plain Text
Title : SDH
Language : Russian
Default : No
Forced : No

Text #4
ID : 8
Format : UTF-8
Codec ID : S_TEXT/UTF8
Codec ID/Info : UTF-8 Plain Text
Title : Форсированные [от Ash61]
Language : Ukrainian
Default : No
Forced : No

Text #5
ID : 9
Format : UTF-8
Codec ID : S_TEXT/UTF8
Codec ID/Info : UTF-8 Plain Text
Title : Full
Language : English
Default : No
Forced : No

Text #6
ID : 10
Format : UTF-8
Codec ID : S_TEXT/UTF8
Codec ID/Info : UTF-8 Plain Text
Title : SDH
Language : English
Default : No
Forced : No

Menu
00:00:00.000 : :1. "Снова те сны?" / "Dreams Again"
00:06:52.120 : :2. Найти и спасти / Search and Rescue
00:14:07.889 : :3. Манипуляции с памятью / Memory Manipulation
00:23:18.272 : :4. Планета C-53 / Planet C-53
00:29:38.026 : :5. Скрулл в подземке / Subway Skrull
00:35:07.772 : :6. Поиск ответов / Searching for Answers
00:44:08.437 : :7. Проект "ПЕГАС" / Project P.E.G.A.S.U.S.
00:50:43.499 : :8. Прибытие подкрепления / Backup Arrives
00:56:18.625 : :9. Снова вместе / Reunited
01:03:02.821 : :10. Разоблачение / Revelation
01:11:17.398 : :11. "Ты - Кэрол Дэнверс" / "You are Carol Danvers"
01:17:49.164 : :12. Выжившие скруллы / Skrull Survivors
01:27:03.051 : :13. "Взять и освободиться" / "Finally Set Free"
01:33:22.430 : :14. Битва звёздных сил / Starforce Battle
01:40:51.796 : :15. Нападение Ронана / Ronan's Offensive
01:46:25.087 : :16. Взять на себя инициативу / Taking the Initiative
01:52:49.888 : :17. Финальные титры / End Credits




















КУБКИ

СТАЖ

МЕДАЛИ
Награды:102

За активную помощь проекту (12) Лучший по количеству кубков (3) За отличные раздачи и качество (38) За подробное оформление раздач (7) За отличные комментарии (9) Почётный форумчанин (2) Верный Сид (28) За участие в конкурсах/играх (2)

Аватара пользователя
Тортуга
kisa1980
Главный помощник Администратора-Корсар
  • Торрент
Для скачивания торрента необходимо зарегистрироваться или войти на трекер.

Вернуться в Фильмы 3D (3D Video)



Uptime по данным Ping-Admin.Ru - сервиса мониторинга доступности сайтов
Рейтинг@Mail.ru