logo
Международный русскоязычный
торрент-трекер
Menu
Doublon
Поделиться с друзьями: 
Голосуй за Корсар и получи 500 дублонов
Рейтинг торрент трекеров - UpTracker.ru

Как украсть миллион / How to Steal a Million (1966, Комедия, мелодрама, криминал, BDRip 720p) - KORSAR

Сообщение MZMA » 24 июн 2017, 14:21

Название: Как украсть миллион
Оригинальное название: How to Steal a Million
Год выпуска: 1966
Выпущено: США, World Wide Productions, Twentieth Century Fox
Жанр: Комедия, мелодрама, криминал
Режиссер: Уильям Уайлер
В ролях: Одри Хепбёрн, Питер О`Тул, Эли Уоллах, Хью Гриффит, Шарль Буайе, Фернан Гравей, Марсель Далио, Жак Марин, Мусташ, Роже Тревиль

О фильме:
Парижская семья Бонне второй век подряд богатеет, создавая качественные подделки под творения мастеров прошлого. Шарль Бонне очень аккуратно ведет свои дела и верит, что его не поймают за руку. Но внезапно выясняется, что статуэтке Венеры якобы "Челлини" предстоит серьезная экспертиза. Чтобы спасти честь семьи, дочь Шарля Николь (Одри Хёпборн) с помощью Саймона Дермотта (Питер О'Тул), которого она поймала якобы за попыткой похищения картины из их дома, берется организовать похищение статуэтки из особо охраняемого музея...

Продолжительность: 02:03:24
Перевод: Дублированный, профессиональный многоголосый, профессиональный двухголосый, авторский
Субтитры: Русские, украинские, английские
Навигация по главам: Есть

Качество: BDRip 720p
Видео: MPEG-4 AVC, 4397 Кбит/сек, 1280x544, 23,976 кадра/сек
Аудио #1: AC3, 6 ch, 448 Кбит/сек | Русский, профессиональный (полное дублирование) Советский дубляж, "Мосфильм" ремастер 20 CENTURY FOX СНГ
Аудио #2: AC3, 2 ch, 224 Кбит/сек | Русский, профессиональный (полное дублирование) Советский дубляж, "Мосфильм" DVD
Аудио #3: AC3, 6 ch, 448 Кбит/сек | Русский, профессиональный (многоголосый закадровый) Film Prestige
Аудио #4: AC3, 2 ch, 192 Кбит/сек | Русский, профессиональный (двухголосый закадровый) НТВ+
Аудио #5: AC3, 2 ch, 192 Кбит/сек | Русский, авторский (одноголосый закадровый) Пётр. Карцев
Аудио #6: AC3, 2 ch, 192 Кбит/сек | Украинский, профессиональный (многоголосый закадровый) ICTV
Аудио #7: AC3, 2 ch, 192 Кбит/сек | Украинский, профессиональный (двухголосый закадровый) TET
Аудио #8: AC3, 6 ch, 448 Кбит/сек | Английский, оригинал


x264 [info]: frame I:1105 Avg QP:13.08 size: 147446
x264 [info]: frame P:34166 Avg QP:16.19 size: 54689
x264 [info]: frame B:142258 Avg QP:18.52 size: 14457
-----------------------------------------------------
Общее
Уникальный идентификатор : 187388531435512077295932455951319991927 (0x8CF9B7E8947F29978744F8C4257C8677)
Полное имя : How.to.Steal.a.Million.1966.BDRip.720p.mkv
Формат : Matroska
Версия формата : Version 2
Размер файла : 5,81 Гбайт
Продолжительность : 2 ч. 3 м.
Общий поток : 6737 Кбит/сек
Дата кодирования : UTC 2017-06-24 08:26:32
Программа кодирования : mkvmerge v5.8.0 ('No Sleep / Pillow') built on Sep 2 2012 15:37:04
Библиотека кодирования : libebml v1.2.3 + libmatroska v1.3.0

Видео
Идентификатор : 1
Формат : AVC
Формат/Информация : Advanced Video Codec
Профиль формата : High@L4.1
Параметр CABAC формата : Да
Параметр ReFrames формата : 12 кадров
Идентификатор кодека : V_MPEG4/ISO/AVC
Продолжительность : 2 ч. 3 м.
Битрейт : 4397 Кбит/сек
Ширина : 1280 пикселей
Высота : 544 пикселя
Соотношение сторон : 2,35:1
Режим частоты кадров : Постоянный
Частота кадров : 23,976 (24000/1001) кадра/сек
Цветовое пространство : YUV
Субдискретизация насыщенности : 4:2:0
Битовая глубина : 8 бит
Тип развёртки : Прогрессивная
Бит/(Пиксели*Кадры) : 0.263
Размер потока : 3,68 Гбайт (63%)
Заголовок : RIP | MZMA
Библиотека кодирования : x264 core 150 r2833kMod df79067
Настройки программы : cabac=1 / ref=12 / deblock=1:-2:-1 / analyse=0x3:0x113 / me=umh / subme=11 / psy=1 / fade_compensate=0.00 / psy_rd=1.00:0.00 / mixed_ref=1 / me_range=48 / chroma_me=1 / trellis=2 / 8x8dct=1 / cqm=0 / deadzone=21,11 / fast_pskip=0 / chroma_qp_offset=-2 / threads=6 / lookahead_threads=1 / sliced_threads=0 / nr=0 / decimate=0 / interlaced=0 / bluray_compat=0 / constrained_intra=0 / bframes=16 / b_pyramid=2 / b_adapt=2 / b_bias=0 / direct=3 / weightb=1 / open_gop=0 / weightp=2 / keyint=250 / keyint_min=23 / scenecut=40 / intra_refresh=0 / rc_lookahead=60 / rc=2pass / mbtree=1 / bitrate=4397 / ratetol=1.0 / qcomp=0.60 / qpmin=0 / qpmax=69 / qpstep=4 / cplxblur=20.0 / qblur=0.5 / vbv_maxrate=50000 / vbv_bufsize=62500 / nal_hrd=none / filler=0 / ip_ratio=1.40 / aq=3:1.00
Язык : English
Default : Да
Forced : Нет
Цветовой диапазон : Limited
Основные цвета : BT.709
Характеристики трансфера : BT.709
Коэффициенты матрицы : BT.709

Аудио #1
Идентификатор : 2
Формат : AC-3
Формат/Информация : Audio Coding 3
Параметр Endianness формата : Big
Идентификатор кодека : A_AC3
Продолжительность : 2 ч. 3 м.
Вид битрейта : Постоянный
Битрейт : 448 Кбит/сек
Каналы : 6 каналов
Расположение каналов : Front: L C R, Side: L R, LFE
Частота : 48,0 КГц
Частота кадров : 31,250 кадров/сек (1536 spf)
Битовая глубина : 16 бит
Метод сжатия : С потерями
Размер потока : 395 Мбайт (7%)
Заголовок : DUB | U.S.S.R. HDTV
Язык : Russian
ServiceKind/String : Complete Main
Default : Да
Forced : Нет

Аудио #2
Идентификатор : 3
Формат : AC-3
Формат/Информация : Audio Coding 3
Параметр Endianness формата : Big
Идентификатор кодека : A_AC3
Продолжительность : 2 ч. 3 м.
Вид битрейта : Постоянный
Битрейт : 224 Кбит/сек
Каналы : 2 канала
Расположение каналов : Front: L R
Частота : 48,0 КГц
Частота кадров : 31,250 кадров/сек (1536 spf)
Битовая глубина : 16 бит
Метод сжатия : С потерями
Размер потока : 198 Мбайт (3%)
Заголовок : DUB | U.S.S.R. DVD
Язык : Russian
ServiceKind/String : Complete Main
Default : Нет
Forced : Нет

Аудио #3
Идентификатор : 4
Формат : AC-3
Формат/Информация : Audio Coding 3
Параметр Endianness формата : Big
Идентификатор кодека : A_AC3
Продолжительность : 2 ч. 3 м.
Вид битрейта : Постоянный
Битрейт : 448 Кбит/сек
Каналы : 6 каналов
Расположение каналов : Front: L C R, Side: L R, LFE
Частота : 48,0 КГц
Частота кадров : 31,250 кадров/сек (1536 spf)
Битовая глубина : 16 бит
Метод сжатия : С потерями
Размер потока : 395 Мбайт (7%)
Заголовок : MVO | Film Prestige
Язык : Russian
ServiceKind/String : Complete Main
Default : Нет
Forced : Нет

Аудио #4
Идентификатор : 5
Формат : AC-3
Формат/Информация : Audio Coding 3
Параметр Endianness формата : Big
Идентификатор кодека : A_AC3
Продолжительность : 2 ч. 3 м.
Вид битрейта : Постоянный
Битрейт : 192 Кбит/сек
Каналы : 2 канала
Расположение каналов : Front: L R
Частота : 48,0 КГц
Частота кадров : 31,250 кадров/сек (1536 spf)
Битовая глубина : 16 бит
Метод сжатия : С потерями
Размер потока : 169 Мбайт (3%)
Заголовок : DVO | НТВ+
Язык : Russian
ServiceKind/String : Complete Main
Default : Нет
Forced : Нет

Аудио #5
Идентификатор : 6
Формат : AC-3
Формат/Информация : Audio Coding 3
Параметр Endianness формата : Big
Идентификатор кодека : A_AC3
Продолжительность : 2 ч. 3 м.
Вид битрейта : Постоянный
Битрейт : 192 Кбит/сек
Каналы : 2 канала
Расположение каналов : Front: L R
Частота : 48,0 КГц
Частота кадров : 31,250 кадров/сек (1536 spf)
Битовая глубина : 16 бит
Метод сжатия : С потерями
Размер потока : 169 Мбайт (3%)
Заголовок : AVO | П. Карцев
Язык : Russian
ServiceKind/String : Complete Main
Default : Нет
Forced : Нет

Аудио #6
Идентификатор : 7
Формат : AC-3
Формат/Информация : Audio Coding 3
Параметр Endianness формата : Big
Идентификатор кодека : A_AC3
Продолжительность : 2 ч. 3 м.
Вид битрейта : Постоянный
Битрейт : 192 Кбит/сек
Каналы : 2 канала
Расположение каналов : Front: L R
Частота : 48,0 КГц
Частота кадров : 31,250 кадров/сек (1536 spf)
Битовая глубина : 16 бит
Метод сжатия : С потерями
Размер потока : 169 Мбайт (3%)
Заголовок : MVO | ICTV
Язык : Ukrainian
ServiceKind/String : Complete Main
Default : Нет
Forced : Нет

Аудио #7
Идентификатор : 8
Формат : AC-3
Формат/Информация : Audio Coding 3
Параметр Endianness формата : Big
Идентификатор кодека : A_AC3
Продолжительность : 2 ч. 3 м.
Вид битрейта : Постоянный
Битрейт : 192 Кбит/сек
Каналы : 2 канала
Расположение каналов : Front: L R
Частота : 48,0 КГц
Частота кадров : 31,250 кадров/сек (1536 spf)
Битовая глубина : 16 бит
Метод сжатия : С потерями
Размер потока : 169 Мбайт (3%)
Заголовок : DVO | TET
Язык : Ukrainian
ServiceKind/String : Complete Main
Default : Нет
Forced : Нет

Аудио #8
Идентификатор : 9
Формат : AC-3
Формат/Информация : Audio Coding 3
Параметр Endianness формата : Big
Идентификатор кодека : A_AC3
Продолжительность : 2 ч. 3 м.
Вид битрейта : Постоянный
Битрейт : 448 Кбит/сек
Каналы : 6 каналов
Расположение каналов : Front: L C R, Side: L R, LFE
Частота : 48,0 КГц
Частота кадров : 31,250 кадров/сек (1536 spf)
Битовая глубина : 16 бит
Метод сжатия : С потерями
Размер потока : 395 Мбайт (7%)
Заголовок : Original
Язык : English
ServiceKind/String : Complete Main
Default : Нет
Forced : Нет

Текст #1
Идентификатор : 10
Формат : UTF-8
Идентификатор кодека : S_TEXT/UTF8
Идентификатор кодека/Информация : UTF-8 Plain Text
Язык : Russian
Default : Нет
Forced : Нет

Текст #2
Идентификатор : 11
Формат : UTF-8
Идентификатор кодека : S_TEXT/UTF8
Идентификатор кодека/Информация : UTF-8 Plain Text
Язык : Ukrainian
Default : Нет
Forced : Нет

Текст #3
Идентификатор : 12
Формат : UTF-8
Идентификатор кодека : S_TEXT/UTF8
Идентификатор кодека/Информация : UTF-8 Plain Text
Язык : English
Default : Нет
Forced : Нет

Меню
00:00:00.000 : en:Chapter 01
00:03:21.868 : en:Chapter 02
00:11:03.329 : en:Chapter 03
00:15:21.629 : en:Chapter 04
00:21:15.148 : en:Chapter 05
00:25:11.885 : en:Chapter 06
00:31:31.764 : en:Chapter 07
00:36:03.286 : en:Chapter 08
00:41:27.943 : en:Chapter 09
00:48:18.395 : en:Chapter 10
00:52:48.498 : en:Chapter 11
00:58:25.168 : en:Chapter 12
01:06:13.344 : en:Chapter 13
01:10:42.613 : en:Chapter 14
01:14:58.494 : en:Chapter 15
01:18:45.554 : en:Chapter 16
01:24:02.162 : en:Chapter 17
01:30:46.107 : en:Chapter 18
01:33:00.950 : en:Chapter 19
01:36:59.855 : en:Chapter 20
01:40:33.986 : en:Chapter 21
01:44:58.375 : en:Chapter 22
01:50:33.084 : en:Chapter 23
01:59:34.542 : en:Chapter 24


Просьба отключить блокировщики рекламы на странице скриншотов по адресу: http://3.lostpic.net/, этим Вы поможете существованию проекта. Заранее спасибо!
При скачивании раздач данного релизёра, дублоны не снимаются, а за сидирование установлен максимальный коэффициент. Просьба ко всем, поддержать сидированием раздачи Леонида и сохранить о нём память!
КУБКИ

СТАЖ

МЕДАЛИ
Награды:126

За активную помощь проекту (4) Лучший по количеству кубков (17) За отличные раздачи и качество (58) За подробное оформление раздач (11) За отличные комментарии (5) Почётный форумчанин (5) Верный Сид (26)

Аватара пользователя
СССР
MZMA
Заслуженный Корсар-Вип+
Раздачи группы KORSAR перезаливать запрещено, кроме групп партнёров и самой группы, но спустя 14 дней после публикации и с обязательным добавлением банера
  • Торрент
Для скачивания торрента необходимо зарегистрироваться или войти на трекер.

Сообщение filbi1976 » 18 окт 2019, 04:03

Люди, помогите скачать! :hi:
Посмотреть товар в профиле пользователя

Нажмите на изображение, чтобы увидеть в полный размер  
1 шт.
Нажмите на изображение, чтобы увидеть в полный размер  
1 шт.
Нажмите на изображение, чтобы увидеть в полный размер  
1 шт.
Нажмите на изображение, чтобы увидеть в полный размер  
1 шт.
Нажмите на изображение, чтобы увидеть в полный размер  
1 шт.
Нажмите на изображение, чтобы увидеть в полный размер  
1 шт.
Нажмите на изображение, чтобы увидеть в полный размер  
1 шт.
Нажмите на изображение, чтобы увидеть в полный размер  
1 шт.
Нажмите на изображение, чтобы увидеть в полный размер  
1 шт.
Нажмите на изображение, чтобы увидеть в полный размер  
1 шт.
Нажмите на изображение, чтобы увидеть в полный размер  
1 шт.
Нажмите на изображение, чтобы увидеть в полный размер  
1 шт.
Нажмите на изображение, чтобы увидеть в полный размер  
1 шт.
Нажмите на изображение, чтобы увидеть в полный размер  
1 шт.
Нажмите на изображение, чтобы увидеть в полный размер  
1 шт.
КУБКИ

СТАЖ

МЕДАЛИ
Награды:133

За активную помощь проекту (4) За отличные раздачи и качество (82) За подробное оформление раздач (1) За отличные комментарии (6) Почётный форумчанин (7) Верный Сид (30) За участие в конкурсах/играх (1)

Аватара пользователя
Тортуга
filbi1976
Администратор-Корсар


Вернуться в Классика зарубежного кино (фильмы до 1980 года / HD Video)



Uptime по данным Ping-Admin.Ru - сервиса мониторинга доступности сайтов
Рейтинг@Mail.ru