logo
Международный русскоязычный
торрент-трекер
Menu
Doublon
Поделиться с друзьями: 

Как создать раздачу на Korsar.tv

Сообщение filbi1976 » 12 сен 2018, 16:27

Торент файлы с личными пасскеями запрещены, используйте для редактирования специальный сайт, или нашу встроенную функцию уделения пасскеев.
http://torrenteditor.com/


Начало:

Кликнуть по нужному разделу и выбрать подраздел.


О заголовках:

Название / оригинальное название (год, жанр, качество)

Пример:

1) Марлоу / Marlowe (1969, детектив, HDTVRip 720p) | Лицензия, iTunes, HDRezka Studio, Чадов, Сербин и т.д. - Зарубежные фильмы

Примечание: В раздачах со звуком Лицензия, или iTunes, остальные озвучки добавлять в заголовке не обязательно.



2) Новая угроза / Сезон: 03 / Серии: 01-16 из 32 (2016, детектив, криминал, BDRip-AVC) - Сериалы

3) Тайна записной книжки (1981, психологический детектив, SATRip-AVC) - Наше кино

4) Eddie Lung (2012-2016, транс, MP3) - Аудио

5) М Хобби / выпуски 01-167 (1993-2015, моделизм, PDF) - Книги

6) Свечин Николай - Варшавские тайны (2015, исторический детектив, аудиокнига, MP3) - Аудиокниги

7) Car Mechanic Simulator 2015: Gold Edition / v 1.1.0.4 + 11 DLC (2015, simulator, PC) - Игры

8) Uninstall Tool / 3.5.3 (2017, обслуживание ОС, PC) - Софт

9) Чемпионат мира 2017. Группа А. Тур 7. Россия - США (16.05.2017, спорт, HDTV 1080i) - Документальные, спорт

10) Титаник / Titanic (2017, драма, приключения, BDRip 1080p) | 3D-Video | iTunes - 3D-Video


В раздачах где важна дата, так и пишем в заголовке: (01.08.2017, сборник программ, РС)


Примечание: Раздачи 2D/3D также размещаются в раздел 3D-Video

Примечание: Цвет заголовка на странице раздачи можете изменить на своё усмотрение.


Примечание: Размер шрифта названия раздачи не должен превышать 120, изменение цвета шрифта разрешёно только в синих тонах.



Шаблон видео раздачи:

1. Можно скопировать постер и описание к фильму парсером кинопоиска, кликнув на соответствующую ссылку в окне создания раздачи, после копирования останется добавить тех данные и скриншоты.


2. Шаблон раздачи скопированный с любого сайта можно вставить во вкладку "Альтернативный шаблон, редактировать", отредактировать под себя и залить раздачу.

3. Заполнить нужные поля во вкладке "Создать раздачу".

4. Заполнить нужные поля, сохранить черновик, следующую раздачу создаём из сохранённого шаблона (черновика).

5. Редактируем, заливаем раздачу.


Название: Зелёный фургон
Год выпуска: 1983
Жанр: Приключения, комедия, экранизация
Режиссер: Александр Павловский
В ролях: Дмитрий Харатьян, Александр Демьяненко, Борислав Брондуков, Александр Соловьёв ст., Регимантас Адомайтис, Константин Григорьев, Эдуард Марцевич, Виктор Ильичёв, Екатерина Дурова, Лев Перфилов, Юрий Дубровин, Виктор Павловский, Владимир Колокольцев, Владимир Волков, Олег Федулов, Иван Матвеев, Борис Сабуров, Владимир Миняйло, Рудольф Мухин

О фильме: Приключенческий фильм по мотивам одноименной повести Александра Козачинского. Это ностальгический, лиричный и пронзительный фильм о послереволюционной Одессе. О мальчике — гимназисте, мечтающем о карьере Шерлока Холмса и попадающем в тот завораживающий кошмар, который принято называть горнилом революции. Здесь причудливо и органично сочетаются юмор и романтика, жестокая правда и эксцентрика — и пронзительным серебряным горном звучит голос молодого Дмитрия Харатьяна, сыгравшего в этом фильме свою лучшую роль.



Выпущено: СССР, Одесская киностдия
Продолжительность: 2x ~ 01:08:20
Язык: Русский

Качество: DVDRip-AVC
Формат: Matroska
Видео: MPEG-4 AVC, 2600 Кбит/с, 704x570@750x570
Аудио: AC3, 2 ch, 256 Кбит/с
Субтитры: Нет


Общее
Уникальный идентификатор : 181226045131257632719312651083384793974 (0x8856DDE0309C53CBBC61E69C51A6AB76)
Полное имя : J:\МОИ РИПЫ\Зелёный фургон_1983-DVDRip-AVC\Фургон-1.mkv
Формат : Matroska
Версия формата : Version 2
Размер файла : 1,35 Гбайт
Продолжительность : 1 ч. 7 м.
Общий поток : 2858 Кбит/сек
Дата кодирования : UTC 2015-05-21 11:21:31
Программа кодирования : mkvmerge v5.8.0 ('No Sleep / Pillow') built on Sep 2 2012 15:37:04
Библиотека кодирования : libebml v1.2.3 + libmatroska v1.3.0

Видео
Идентификатор : 1
Формат : AVC
Формат/Информация : Advanced Video Codec
Профиль формата : High@L4.1
Параметр CABAC формата : Да
Параметр ReFrames формата : 15 кадров
Идентификатор кодека : V_MPEG4/ISO/AVC
Битрейт : 2600 Кбит/сек
Ширина : 704 пикселя
Высота : 570 пикселей
Соотношение сторон : 4:3
Соотношение сторон в оригинале : 4:3
Режим частоты кадров : Переменный
Частота кадров в оригинале : 25,000 кадров/сек
Цветовое пространство : YUV
Субдискретизация насыщенности : 4:2:0
Битовая глубина : 8 бит
Тип развёртки : Прогрессивная
Бит/(Пиксели*Кадры) : 0.259
Библиотека кодирования : x264 core 146 r2538 121396c
Настройки программы : cabac=1 / ref=15 / deblock=1:-2:-2 / analyse=0x3:0x133 / me=umh / subme=10 / psy=1 / psy_rd=1.05:0.18 / mixed_ref=1 / me_range=32 / chroma_me=1 / trellis=2 / 8x8dct=1 / cqm=0 / deadzone=21,11 / fast_pskip=0 / chroma_qp_offset=-3 / threads=12 / lookahead_threads=2 / sliced_threads=0 / nr=0 / decimate=0 / interlaced=0 / bluray_compat=0 / constrained_intra=0 / bframes=7 / b_pyramid=2 / b_adapt=2 / b_bias=0 / direct=3 / weightb=1 / open_gop=0 / weightp=2 / keyint=250 / keyint_min=25 / scenecut=40 / intra_refresh=0 / rc=2pass / mbtree=0 / bitrate=2600 / ratetol=1.0 / qcomp=0.65 / qpmin=0 / qpmax=39 / qpstep=4 / cplxblur=20.0 / qblur=0.5 / ip_ratio=1.40 / pb_ratio=1.30 / aq=1:1.00
Язык : English
Default : Да
Forced : Нет
Основные цвета : BT.601 PAL
Характеристики трансфера : BT.470 System B, BT.470 System G
Коэффициенты матрицы : BT.601

Аудио
Идентификатор : 2
Формат : AC-3
Формат/Информация : Audio Coding 3
Расширение режима : CM (complete main)
Параметр Endianness формата : Big
Идентификатор кодека : A_AC3
Продолжительность : 1 ч. 7 м.
Вид битрейта : Постоянный
Битрейт : 256 Кбит/сек
Каналы : 2 канала
Расположение каналов : Front: L R
Частота : 48,0 КГц
Битовая глубина : 16 бит
Метод сжатия : С потерями
Задержка видео : 24 мс.
Размер потока : 123 Мбайт (9%)
Язык : Russian
Default : Да
Forced : Нет

Название: Непрощенный
Оригинальное название: Unforgiven
Год выпуска: 1992
Жанр: Драма, вестерн
Режиссер: Клинт Иствуд
В ролях: Клинт Иствуд, Джин Хэкмен, Морган Фримен, Ричард Харрис, Джаймз Вулветт, Сол Рубинек, Фрэнсис Фишер, Анна Левайн-Томсон, Дэвид Муччи, Роб Кэмпбелл

О фильме: Поздняя осень 1880 года. Это история Уильяма Мунни — бывшего хладнокровного убийцы, нашедшего в себе силы покончить с грязным ремеслом. Он стал фермером, завел семью. И вот сейчас его жена умирает, оставляя его одного с двумя детьми. Мунни беден, ему нужны деньги. Скофилд Кид предлагает ему поймать двух ковбоев, совершивших преступление, и получить за это вознаграждение. Но все складывается совсем не так, как хотелось.



Выпущено: США, Malpaso Productions, Warner Bros. Pictures Co.
Продолжительность: 02:10:41
Перевод: Дублированный, профессиональный многоголосый, профессиональный двухголосый, авторский одноголосый

Качество: BDRip 1080p
Видео: MPEG-4 AVC, 1920x800 (2.40:1), 9202 kbps, 23.976 fps
Аудио 01: Russian: 48 kHz, AC3, 2.0 ch, 224 kbps - DUB, Варус Видео
Аудио 02: Russian: 48 kHz, AC3, 5.1 ch, 640 kbps - MVO, Позитив-Мультимедиа
Аудио 03: Russian: 48 kHz, AC3, 5.1 ch, 448 kbps - MVO, CP-Digital
Аудио 04: Russian: 48 kHz, AC3, 2.0 ch, 192 kbps - DVO, НТВ
Аудио 05: Russian: 48 kHz, AC3, 5.1 ch, 448 kbps - AVO, Ю. Живов
Аудио 06: Russian: 48 kHz, AC3, 5.1 ch, 640 kbps - AVO, М. Яроцкий
Аудио 07: Russian: 48 kHz, AC3, 5.1 ch, 384 kbps - AVO, А. Гаврилов (поздний)
Аудио 08: Russian: 48 kHz, AC3, 2.0 ch, 192 kbps - AVO, А. Гаврилов (ранний)
Аудио 09: Russian: 48 kHz, AC3, 2.0 ch, 192 kbps - AVO, В. Горчаков
Аудио 10: Russian: 48 kHz, AC3, 2.0 ch, 192 kbps - AVO, Л. Володарский
Аудио 11: Ukrainian: 48 kHz, AC3, 2.0 ch, 192 kbps - MVO
Аудио 12: English: 48 kHz, AC3, 5.1 ch, 640 kbps - Оригинал
Субтитры: Русские, английские
Навигация по главам: Есть

Премия «Кинема дзюнпо» в Японии за лучшую иностранную ленту по итогам 1993 года, включён в 2004 году в Национальный регистр фильмов.

Оскар, 1993 год
Победитель (4):
Лучший фильм
Лучшая мужская роль второго плана (Джин Хэкмен)
Лучший режиссер (Клинт Иствуд)
Лучший монтаж
Номинации (5):
Лучшая мужская роль (Клинт Иствуд)
Лучший сценарий
Лучшая работа оператора
Лучшие декорации
Лучший звук

Золотой глобус, 1993 год
Победитель (2):
Лучшая мужская роль второго плана (Джин Хэкмен)
Лучший режиссер (Клинт Иствуд)
Номинации (2):
Лучший фильм (драма)
Лучший сценарий

Британская академия, 1993 год
Победитель (1):
Лучшая мужская роль второго плана (Джин Хэкмен)
Номинации (5):
Лучший фильм
Лучший режиссер (Клинт Иствуд)
Лучший оригинальный сценарий
Лучшая работа оператора
Лучший звук

Общее
Уникальный идентификатор : 171708252683831373357972328963801715888 (0x812DCE7A565DB19381A5F5ABE0CD94B0)
Полное имя : Непрощенный.1992.REMASTERED.BDRip.1080p.KORSAR.mkv
Формат : Matroska
Версия формата : Version 2
Размер файла : 12,4 Гбайт
Продолжительность : 2 ч. 10 м.
Общий поток : 13,6 Мбит/сек
Дата кодирования : UTC 2018-10-01 14:47:30
Программа кодирования : mkvmerge v5.8.0 ('No Sleep / Pillow') built on Sep 2 2012 15:37:04
Библиотека кодирования : libebml v1.2.3 + libmatroska v1.3.0

Видео
Идентификатор : 1
Формат : AVC
Формат/Информация : Advanced Video Codec
Профиль формата : High@L4.1
Настройки формата : CABAC / 5 Ref Frames
Параметр CABAC формата : Да
Параметр RefFrames формата : 5 кадров
Идентификатор кодека : V_MPEG4/ISO/AVC
Продолжительность : 2 ч. 10 м.
Битрейт : 9202 Кбит/сек
Ширина : 1920 пикселей
Высота : 800 пикселей
Соотношение сторон : 2,40:1
Режим частоты кадров : Постоянный
Частота кадров : 23,976 (24000/1001) кадра/сек
Цветовое пространство : YUV
Субдискретизация насыщенности : 4:2:0
Битовая глубина : 8 бит
Тип развёртки : Прогрессивная
Бит/(Пиксели*Кадры) : 0.250
Размер потока : 8,16 Гбайт (66%)
Заголовок : RIP | MZMA
Библиотека кодирования : x264 core 150 r2833kMod df79067
Настройки программы : cabac=1 / ref=5 / deblock=1:-3:-3 / analyse=0x3:0x113 / me=umh / subme=11 / psy=1 / fade_compensate=0.00 / psy_rd=1.00:0.00 / mixed_ref=1 / me_range=64 / chroma_me=1 / trellis=2 / 8x8dct=1 / cqm=0 / deadzone=21,11 / fast_pskip=0 / chroma_qp_offset=-2 / threads=6 / lookahead_threads=1 / sliced_threads=0 / nr=0 / decimate=0 / interlaced=0 / bluray_compat=0 / constrained_intra=0 / bframes=16 / b_pyramid=2 / b_adapt=2 / b_bias=0 / direct=3 / weightb=1 / open_gop=0 / weightp=2 / keyint=250 / keyint_min=23 / scenecut=40 / intra_refresh=0 / rc_lookahead=60 / rc=2pass / mbtree=1 / bitrate=9202 / ratetol=1.0 / qcomp=0.60 / qpmin=0 / qpmax=69 / qpstep=4 / cplxblur=20.0 / qblur=0.5 / vbv_maxrate=50000 / vbv_bufsize=62500 / nal_hrd=none / filler=0 / ip_ratio=1.40 / aq=3:1.00
Язык : English
По умолчанию : Да
Принудительно : Нет
Цветовой диапазон : Limited
Основные цвета : BT.709
Характеристики трансфера : BT.709
Коэффициенты матрицы : BT.709

Аудио #1
Идентификатор : 2
Формат : AC-3
Формат/Информация : Audio Coding 3
Идентификатор кодека : A_AC3
Продолжительность : 2 ч. 10 м.
Вид битрейта : Постоянный
Битрейт : 224 Кбит/сек
Каналы : 2 канала
Расположение каналов : Front: L R
Частота : 48,0 КГц
Частота кадров : 31,250 кадров/сек (1536 SPF)
Битовая глубина : 16 бит
Метод сжатия : С потерями
Размер потока : 209 Мбайт (2%)
Заголовок : DUB | Варус Видео Студия Нева
Язык : Russian
По умолчанию : Да
Принудительно : Нет

Аудио #2
Идентификатор : 3
Формат : AC-3
Формат/Информация : Audio Coding 3
Идентификатор кодека : A_AC3
Продолжительность : 2 ч. 10 м.
Вид битрейта : Постоянный
Битрейт : 640 Кбит/сек
Каналы : 6 каналов
Расположение каналов : Front: L C R, Side: L R, LFE
Частота : 48,0 КГц
Частота кадров : 31,250 кадров/сек (1536 SPF)
Битовая глубина : 16 бит
Метод сжатия : С потерями
Размер потока : 598 Мбайт (5%)
Заголовок : MVO | Позитив-Мультимедиа
Язык : Russian
По умолчанию : Нет
Принудительно : Нет

Аудио #3
Идентификатор : 4
Формат : AC-3
Формат/Информация : Audio Coding 3
Идентификатор кодека : A_AC3
Продолжительность : 2 ч. 10 м.
Вид битрейта : Постоянный
Битрейт : 448 Кбит/сек
Каналы : 6 каналов
Расположение каналов : Front: L C R, Side: L R, LFE
Частота : 48,0 КГц
Частота кадров : 31,250 кадров/сек (1536 SPF)
Битовая глубина : 16 бит
Метод сжатия : С потерями
Размер потока : 419 Мбайт (3%)
Заголовок : MVO | CP-Digital - R5
Язык : Russian
По умолчанию : Нет
Принудительно : Нет

Аудио #4
Идентификатор : 5
Формат : AC-3
Формат/Информация : Audio Coding 3
Идентификатор кодека : A_AC3
Продолжительность : 2 ч. 10 м.
Вид битрейта : Постоянный
Битрейт : 192 Кбит/сек
Каналы : 2 канала
Расположение каналов : Front: L R
Частота : 48,0 КГц
Частота кадров : 31,250 кадров/сек (1536 SPF)
Битовая глубина : 16 бит
Метод сжатия : С потерями
Размер потока : 180 Мбайт (1%)
Заголовок : DVO | НТВ
Язык : Russian
По умолчанию : Нет
Принудительно : Нет

Аудио #5
Идентификатор : 6
Формат : AC-3
Формат/Информация : Audio Coding 3
Идентификатор кодека : A_AC3
Продолжительность : 2 ч. 10 м.
Вид битрейта : Постоянный
Битрейт : 448 Кбит/сек
Каналы : 6 каналов
Расположение каналов : Front: L C R, Side: L R, LFE
Частота : 48,0 КГц
Частота кадров : 31,250 кадров/сек (1536 SPF)
Битовая глубина : 16 бит
Метод сжатия : С потерями
Размер потока : 419 Мбайт (3%)
Заголовок : AVO | Ю. Живов
Язык : Russian
По умолчанию : Нет
Принудительно : Нет

Аудио #6
Идентификатор : 7
Формат : AC-3
Формат/Информация : Audio Coding 3
Идентификатор кодека : A_AC3
Продолжительность : 2 ч. 10 м.
Вид битрейта : Постоянный
Битрейт : 640 Кбит/сек
Каналы : 6 каналов
Расположение каналов : Front: L C R, Side: L R, LFE
Частота : 48,0 КГц
Частота кадров : 31,250 кадров/сек (1536 SPF)
Битовая глубина : 16 бит
Метод сжатия : С потерями
Размер потока : 598 Мбайт (5%)
Заголовок : AVO | М. Яроцкий
Язык : Russian
По умолчанию : Нет
Принудительно : Нет

Аудио #7
Идентификатор : 8
Формат : AC-3
Формат/Информация : Audio Coding 3
Идентификатор кодека : A_AC3
Продолжительность : 2 ч. 10 м.
Вид битрейта : Постоянный
Битрейт : 384 Кбит/сек
Каналы : 6 каналов
Расположение каналов : Front: L C R, Side: L R, LFE
Частота : 48,0 КГц
Частота кадров : 31,250 кадров/сек (1536 SPF)
Битовая глубина : 16 бит
Метод сжатия : С потерями
Размер потока : 359 Мбайт (3%)
Заголовок : AVO | А. Гаврилов - поздний
Язык : Russian
По умолчанию : Нет
Принудительно : Нет

Аудио #8
Идентификатор : 9
Формат : AC-3
Формат/Информация : Audio Coding 3
Идентификатор кодека : A_AC3
Продолжительность : 2 ч. 10 м.
Вид битрейта : Постоянный
Битрейт : 192 Кбит/сек
Каналы : 2 канала
Расположение каналов : Front: L R
Частота : 48,0 КГц
Частота кадров : 31,250 кадров/сек (1536 SPF)
Битовая глубина : 16 бит
Метод сжатия : С потерями
Размер потока : 180 Мбайт (1%)
Заголовок : AVO | А. Гаврилов - ранний
Язык : Russian
По умолчанию : Нет
Принудительно : Нет

Аудио #9
Идентификатор : 10
Формат : AC-3
Формат/Информация : Audio Coding 3
Идентификатор кодека : A_AC3
Продолжительность : 2 ч. 10 м.
Вид битрейта : Постоянный
Битрейт : 192 Кбит/сек
Каналы : 2 канала
Расположение каналов : Front: L R
Частота : 48,0 КГц
Частота кадров : 31,250 кадров/сек (1536 SPF)
Битовая глубина : 16 бит
Метод сжатия : С потерями
Размер потока : 180 Мбайт (1%)
Заголовок : AVO | В. Горчаков
Язык : Russian
По умолчанию : Нет
Принудительно : Нет

Аудио #10
Идентификатор : 11
Формат : AC-3
Формат/Информация : Audio Coding 3
Идентификатор кодека : A_AC3
Продолжительность : 2 ч. 10 м.
Вид битрейта : Постоянный
Битрейт : 192 Кбит/сек
Каналы : 2 канала
Расположение каналов : Front: L R
Частота : 48,0 КГц
Частота кадров : 31,250 кадров/сек (1536 SPF)
Битовая глубина : 16 бит
Метод сжатия : С потерями
Размер потока : 180 Мбайт (1%)
Заголовок : AVO | Л. Володарский
Язык : Russian
По умолчанию : Нет
Принудительно : Нет

Аудио #11
Идентификатор : 12
Формат : AC-3
Формат/Информация : Audio Coding 3
Идентификатор кодека : A_AC3
Продолжительность : 2 ч. 10 м.
Вид битрейта : Постоянный
Битрейт : 192 Кбит/сек
Каналы : 2 канала
Расположение каналов : Front: L R
Частота : 48,0 КГц
Частота кадров : 31,250 кадров/сек (1536 SPF)
Битовая глубина : 16 бит
Метод сжатия : С потерями
Размер потока : 180 Мбайт (1%)
Заголовок : MVO
Язык : Ukrainian
По умолчанию : Нет
Принудительно : Нет

Аудио #12
Идентификатор : 13
Формат : AC-3
Формат/Информация : Audio Coding 3
Идентификатор кодека : A_AC3
Продолжительность : 2 ч. 10 м.
Вид битрейта : Постоянный
Битрейт : 640 Кбит/сек
Каналы : 6 каналов
Расположение каналов : Front: L C R, Side: L R, LFE
Частота : 48,0 КГц
Частота кадров : 31,250 кадров/сек (1536 SPF)
Битовая глубина : 16 бит
Метод сжатия : С потерями
Размер потока : 598 Мбайт (5%)
Заголовок : Original
Язык : English
По умолчанию : Нет
Принудительно : Нет

Текст #1
Идентификатор : 14
Формат : UTF-8
Идентификатор кодека : S_TEXT/UTF8
Идентификатор кодека/Информация : UTF-8 Plain Text
Заголовок : Позитив-Мультимедиа
Язык : Russian
По умолчанию : Нет
Принудительно : Нет

Текст #2
Идентификатор : 15
Формат : UTF-8
Идентификатор кодека : S_TEXT/UTF8
Идентификатор кодека/Информация : UTF-8 Plain Text
Язык : Russian
По умолчанию : Нет
Принудительно : Нет

Текст #3
Идентификатор : 16
Формат : UTF-8
Идентификатор кодека : S_TEXT/UTF8
Идентификатор кодека/Информация : UTF-8 Plain Text
Язык : English
По умолчанию : Нет
Принудительно : Нет

Текст #4
Идентификатор : 17
Формат : UTF-8
Идентификатор кодека : S_TEXT/UTF8
Идентификатор кодека/Информация : UTF-8 Plain Text
Заголовок : SDH
Язык : English
По умолчанию : Нет
Принудительно : Нет

Меню
00:00:00.000 : en:Foreword [1:11]
00:01:11.863 : en:Big Whiskey Disturbance [2:42]
00:03:54.359 : en:"No Fuss" Fine [3:06]
00:07:01.379 : en:"We Ain't Horses" [1:16]
00:08:17.622 : en:Schofield Kid [5:52]
00:14:10.808 : en:Payment Day [2:43]
00:16:54.805 : en:Out of Practice [7:23]
00:24:18.582 : en:Done Stuff for Money [4:33]
00:28:52.689 : en:Just a Fella Now [2:49]
00:31:42.358 : en:Majesty of Royalty [2:52]
00:34:34.864 : en:No Firearms Allowed [4:18]
00:38:54.123 : en:Welcoming English Bob [7:30]
00:46:24.907 : en:Not-so-Straight Shooter [7:19]
00:53:44.346 : en:Duke of Death [4:20]
00:58:05.273 : en:Killers' Campfire [2:19]
01:00:24.912 : en:Object Lesson [6:23]
01:06:49.130 : en:Farewell to Savages [2:47]
01:09:36.297 : en:Vision of the Dead [4:12]
01:13:48.882 : en:Big Whiskey Hospitality [7:10]
01:20:59.813 : en:Angel of Death [3:46]
01:24:46.873 : en:"We Both Got Scars" [4:51]
01:29:38.998 : en:Water for a Dying Man [4:48]
01:34:27.453 : en:Ned's Decision [1:43]
01:36:10.890 : en:"He Had It Coming" [4:59]
01:41:11.190 : en:Interrogating Ned [2:02]
01:43:13.812 : en:Assassins Strike [2:36]
01:45:50.469 : en:A Hel of a Thing [3:28]
01:49:19.344 : en:Will's Only Friend [3:55]
01:53:14.746 : en:On Display [1:19]
01:54:34.325 : en:Here to Kill You [3:47]
01:58:21.719 : en:"Deserves Got Nothin' to Do With It" [3:51]
02:02:13.117 : en:Killer's Threat [2:19]
02:04:32.256 : en:Epilogue and End Credits [6:09]

Название: Chernobylite
Год выпуска: 2019
Жанр: Action, Shooter, 1st Person, Horror
Разработчик: The Farm 51
Издатель: The Farm 51
Тип издания: Repack
Язык интерфейса: Русский, aнглийский, MULTi
Язык озвучки: Русский
Лекарство: Вшито {ALI213}

Системные требования:
Операционная система: Windows 7, 8, 10 (x64)
Процессор: Intel Core i5-2500K CPU
Оперативная память: 8 GB ОЗУ
Видеокарта: Geforce GTX 760 / GTX 1050 or AMD Radeon R7 370 / HD 7870
Свободное место на жестком диске: 42.6 ГБ

Описание: Chernobylite - новая игра от создателей признанной критиками Get Even. Это научно-фантастическая игра на выживание в жанре "ужасы", в которой сочетаются свободное исследование мрачного мира, сложные бои, уникальный крафтинг и нелинейный сюжет. Попробуйте выжить и раскрыть запутанные тайны Чернобыля в воссозданной с помощью 3D-сканирования реальной Зоне отчуждения. Помните, что присутствие военных – не единственная ваша проблема. Приготовьтесь к пробирающему до мурашек приключению с выживанием, ужасами, теориями заговора, любовью и одержимостью. Только так вы поймете, что в борьбе за выживание все средства хороши.

Сотрудничайте или соревнуйтесь с другими сталкерами Чернобыльской зоны, чтобы выжить. Помните, что жизнь – хрупкая штука, и от ваших решений зависит судьба ваших спутников. Вы можете тратить сколько угодно времени на подготовку, но помните, что ваша история пишется без остановок. С каждым мгновением ваши шансы на успех тают: товарищи погибают, припасы истощаются, а патрули идут по следу. И будто этого недостаточно, сверхъестественные опасности начинают подстерегать вас в самых неожиданных местах. Каждый день приносит новые испытания и делает ваше положение в зоне все более зыбким. Тщательно разрабатывайте стартегию - если, конечно, хотите выжить.
Мастерите собственное снаряжение и оружие, чтобы защититься от враждебно настроенных военных и сверхъестественных угроз, таящихся в зоне. Найдите применение хитроумным механизмам, чтобы облегчить себе путь по загрязненной пересеченной местности. Оставайтесь незамеченным и собирайте улики, чтобы восстановить события прошлого.
Определяйте, что случится с миром вокруг вас – развитие событий зависит от ваших решений и усилий по поиску правды (или избеганию ее).
Сохраняйте решимость и холодный рассудок – ЧАЭС уже не та, что раньше. Никто и вообразить не может, какие ужасы случились с вашей любимой.
- Исследуйте завораживающую и пугающе точную копию Чернобыльской зоны отчуждения, воссозданную с помощью технологии ЗD-сканирования.
- Сотрудничайте или соревнуйтесь с другими сталкерами Чернобыльской зоны, но ни при каких обстоятельствах не доверяйте им полностью. Помните, что у всех здесь свои скрытые цели. Всегда.
- Столкнитесь лицом к лицу с естественными и сверхъестественными угрозами.
- Погрузитесь в будоражащую нелинейную историю, в которой переплелись научная фантастика и ужасы.
- Применяйте знания своего персонажа в области физики и химии, чтобы мастерить оборудование и грамотно распоряжаться припасами.
- Сражайтесь с кровожадными монстрами, прибывающими из параллельной реальности.
- Ведите расследование и собирайте данные с арсеналом точных инструментов анализа окружающей среды.
- Игра основана на технологии сканирования Reality 51, над которой The Farm 51 работает уже больше 5 лет.
За основу взят Steam-Rip от Nimryel;
Версия игры: 20782 build 4297528 | Early Access;
Время установки ~10 минут (зависит от компьютера);
Repack от xatab.


Исполнитель: Chainer
Название альбома: Orgasmo Mechanic
Год выпуска: 2015
Жанр: Heavy Metal

Продолжительность: 00:43:38
Формат: МР3
Качество: 320 Кбит/с


Добавление постера и скриншотов:

Постеры должны быть в формате JPEG и не больше 500х500. Заливать можно в двух вариантах, как с помощью добавления ссылки в альтернативные постеры, так же загружать с компьютера.



Скриншоты можно внешние ссылки во вкладку "Альтернативные скриншоты и постеры", можно в первом окне "Создать раздачу", скриншоты будут выводиться под спойлер в отличии от альтернативного варианта, можно два варианта одновременно.

Без спойлера разрешено только 4 скриншота!


Разрешённые фотохостинги:

http://3.lostpic.net/
https://radikal.ru/
https://imageban.ru/
http://fastpic.ru/

Портативная программа ImageUploader для залива постеров, скринов и сэмплов, с добавленным хостингом картинок http://3.lostpic.net/, прилагается, ибо в оригинальном варианте программы, этого хостинга нет.

Добавление торрент файла:



Любые банеры должны быть размещены ниже строки "О фильме:"


Тема поднималась пользователем filbi1976 12 сен 2018, 16:27.
Посмотреть товар в профиле пользователя

Нажмите на изображение, чтобы увидеть в полный размер  
1 шт.
Нажмите на изображение, чтобы увидеть в полный размер  
1 шт.
Нажмите на изображение, чтобы увидеть в полный размер  
1 шт.
Нажмите на изображение, чтобы увидеть в полный размер  
1 шт.
Нажмите на изображение, чтобы увидеть в полный размер  
1 шт.
Нажмите на изображение, чтобы увидеть в полный размер  
1 шт.
Нажмите на изображение, чтобы увидеть в полный размер  
1 шт.
Нажмите на изображение, чтобы увидеть в полный размер  
1 шт.
Нажмите на изображение, чтобы увидеть в полный размер  
1 шт.
Нажмите на изображение, чтобы увидеть в полный размер  
1 шт.
Нажмите на изображение, чтобы увидеть в полный размер  
1 шт.
Нажмите на изображение, чтобы увидеть в полный размер  
1 шт.
Нажмите на изображение, чтобы увидеть в полный размер  
1 шт.
Нажмите на изображение, чтобы увидеть в полный размер  
1 шт.
Нажмите на изображение, чтобы увидеть в полный размер  
1 шт.
КУБКИ

СТАЖ

МЕДАЛИ
Награды:126

За активную помощь проекту (4) За отличные раздачи и качество (77) За отличные комментарии (6) Почётный форумчанин (6) Верный Сид (30) За участие в конкурсах/играх (1)

Аватара пользователя
Тортуга
filbi1976
Администратор-Корсар

Вернуться в Как создать раздачу на Korsar.tv



cron
Uptime по данным Ping-Admin.Ru - сервиса мониторинга доступности сайтов
Рейтинг@Mail.ru