logo
Международный русскоязычный
торрент-трекер
Menu
Doublon
Поделиться с друзьями: 
Голосуй за Корсар и получи 500 дублонов
Рейтинг торрент трекеров - UpTracker.ru

Каффс / Kuffs (1992, Боевик, комедия, криминал , BDRip 720p)

Сообщение Korsar » 24 мар 2017, 11:35

Название: Каффс
Оригинальное название: Kuffs
Год выхода: 1992
Жанр: Боевик, комедия, криминал
Режиссер: Брюс А. Эванс / Bruce A. Evans
В ролях: Кристиан Слэйтер, Милла Йовович, Рик Роман Во, Чад Рэндолл, Кларк Коулмэн, Леон Риппи, Крэйг Бентон, Эшли Джадд, Брюс Бокслейтнер, Джошуа Кэдмен, Мэри Эллен Трейнор, Аки Алеонг, Генри Дж. Сандерс, Дом Магуили, Трой Эванс, Лорен Блэкуелл, Ким Робиллард, Гари Манч, Дон Шлоссман, Джордж Де Ла Пена, Дженис Ули, Лу Леонард, Роджер Рук

О фильме: У Джорджа Каффса, молодого парня из Сан-Франциско, куча проблем: безработица, безденежье, неожиданная беременность возлюбленной… Вся надежда на старшего брата — владельца охранного агентства, защищающего мелких предпринимателей от вымогателей и грабителей. Но брат погибает от руки гангстера, и Джордж, унаследовав семейную «вотчину», сам становится патрульным. И начинает активную борьбу с бандитами и продажными полицейскими.



Страна: США
Студия: Beginner's Luck, Dino de Laurentiis Communications, EvansGideon
Продолжительность: 01:41:27
Перевод 1: Профессиональный (двухголосый закадровый) SDI Media
Перевод 2: Профессиональный (двухголосый закадровый) НТВ+
Перевод 3: Профессиональный (двухголосый закадровый) ТВ6
Перевод 4: Авторский (одноголосый закадровый) Андрей Гаврилов
Перевод 5: Авторский (одноголосый закадровый) Сергей Жучков
Оригинальная аудиодорожка: английский

Кодек: h 264
Качество: BDRip 720p
Контейнер: MKV

Видео: 1280x696 at 23.976 fps, MPEG-4 AVC, ~16000 Кbps avg
Аудио#1: Russian: 48 kHz, AC3, 2/0 (L,R) ch, ~192 kbps avg |Двухголосый закадровый, SDI Media|
Аудио#2: Russian: 48 kHz, AC3, 2/0 (L,R) ch, ~192 kbps avg |Двухголосый закадровый, НТВ+|
Аудио#3: Russian: 48 kHz, AC3, 2/0 (L,R) ch, ~192 kbps avg |Двухголосый закадровый, ТВ6|
Аудио#4: Russian: 48 kHz, AC3, 2/0 (L,R) ch, ~192 kbps avg |Одноголосый закадровый, Андрей Гаврилов|
Аудио#5: Russian: 48 kHz, AC3, 2/0 (L,R) ch, ~192 kbps avg |Одноголосый закадровый, Сергей Жучков|
Аудио#6: English: 48 kHz/24-bit, DTS, 2/0 (L,R) ch, ~1509 kbps avg
Субтитры: русские, английские

Семпл

x264 info: frame I:926 Avg QP:13.92 size:176486
x264 info: frame P:27678 Avg QP:15.84 size:104963
x264 info: frame B:117341 Avg QP:17.33 size: 77570
x264 info: consecutive B-frames: 1.3% 1.6% 5.6% 8.5% 11.9% 55.4% 6.3% 2.6% 2.4% 2.4% 2.0%
General
Unique ID : 229786093080863858005932197084090448292 (0xACDF311651CC00158459F3350211B9A4)
Complete name : F:ФильмыKuffs.1992.720p.BluRay.5хRus.Eng.TeamHD-Атлас31.mkv
Format : Matroska
Format version : Version 4 / Version 2
File size : 13.1 GiB
Duration : 1h 41mn
Overall bit rate : 18.5 Mbps
Movie name : Kuffs.1992
Encoded date : UTC 2019-05-13 19:00:17
Writing application : mkvmerge v6.1.0 ('Old Devil') built on Mar 4 2013 09:10:42
Writing library : libebml v1.3.0 + libmatroska v1.4.0

Video
ID : 1
Format : AVC
Format/Info : Advanced Video Codec
Format profile : High@L4.1
Format settings, CABAC : Yes
Format settings, ReFrames : 9 frames
Codec ID : V_MPEG4/ISO/AVC
Duration : 1h 41mn
Bit rate : 16.0 Mbps
Width : 1 280 pixels
Height : 696 pixels
Display aspect ratio : 1.85:1
Frame rate mode : Constant
Frame rate : 23.976 fps
Color space : YUV
Chroma subsampling : 4:2:0
Bit depth : 8 bits
Scan type : Progressive
Bits/(Pixel*Frame) : 0.749
Stream size : 11.1 GiB (85%)
Title : Release for TeamHD by Атлас31
Writing library : x264 core 157 r2935 545de2f
Encoding settings : cabac=1 / ref=9 / deblock=1:-3:-3 / analyse=0x3:0x133 / me=umh / subme=11 / psy=1 / psy_rd=1.00:0.15 / mixed_ref=1 / me_range=32 / chroma_me=1 / trellis=2 / 8x8dct=1 / cqm=0 / deadzone=21,11 / fast_pskip=1 / chroma_qp_offset=-3 / threads=3 / lookahead_threads=1 / sliced_threads=0 / nr=0 / decimate=1 / interlaced=0 / bluray_compat=0 / constrained_intra=0 / bframes=10 / b_pyramid=2 / b_adapt=2 / b_bias=0 / direct=3 / weightb=1 / open_gop=0 / weightp=2 / keyint=240 / keyint_min=24 / scenecut=40 / intra_refresh=0 / rc_lookahead=60 / rc=2pass / mbtree=1 / bitrate=16000 / ratetol=1.0 / qcomp=0.60 / qpmin=0 / qpmax=69 / qpstep=4 / cplxblur=20.0 / qblur=0.5 / ip_ratio=1.40 / aq=1:1.00
Language : English
Default : Yes
Forced : No

Audio #1
ID : 2
Format : AC-3
Format/Info : Audio Coding 3
Mode extension : CM (complete main)
Format settings, Endianness : Big
Codec ID : A_AC3
Duration : 1h 41mn
Bit rate mode : Constant
Bit rate : 192 Kbps
Channel(s) : 2 channels
Channel positions : Front: L R
Sampling rate : 48.0 KHz
Bit depth : 16 bits
Compression mode : Lossy
Stream size : 139 MiB (1%)
Title : DVO (SDI Media)
Language : Russian
Default : Yes
Forced : No

Audio #2
ID : 3
Format : AC-3
Format/Info : Audio Coding 3
Mode extension : CM (complete main)
Format settings, Endianness : Big
Codec ID : A_AC3
Duration : 1h 41mn
Bit rate mode : Constant
Bit rate : 192 Kbps
Channel(s) : 2 channels
Channel positions : Front: L R
Sampling rate : 48.0 KHz
Bit depth : 16 bits
Compression mode : Lossy
Stream size : 139 MiB (1%)
Title : DVO (НТВ+)
Language : Russian
Default : No
Forced : No

Audio #3
ID : 4
Format : AC-3
Format/Info : Audio Coding 3
Mode extension : CM (complete main)
Format settings, Endianness : Big
Codec ID : A_AC3
Duration : 1h 41mn
Bit rate mode : Constant
Bit rate : 192 Kbps
Channel(s) : 2 channels
Channel positions : Front: L R
Sampling rate : 48.0 KHz
Bit depth : 16 bits
Compression mode : Lossy
Stream size : 139 MiB (1%)
Title : DVO (ТВ6)
Language : Russian
Default : No
Forced : No

Audio #4
ID : 5
Format : AC-3
Format/Info : Audio Coding 3
Mode extension : CM (complete main)
Format settings, Endianness : Big
Codec ID : A_AC3
Duration : 1h 41mn
Bit rate mode : Constant
Bit rate : 192 Kbps
Channel(s) : 2 channels
Channel positions : Front: L R
Sampling rate : 48.0 KHz
Bit depth : 16 bits
Compression mode : Lossy
Stream size : 139 MiB (1%)
Title : AVO (Андрей Гаврилов)
Language : Russian
Default : No
Forced : No

Audio #5
ID : 6
Format : AC-3
Format/Info : Audio Coding 3
Mode extension : CM (complete main)
Format settings, Endianness : Big
Codec ID : A_AC3
Duration : 1h 41mn
Bit rate mode : Constant
Bit rate : 192 Kbps
Channel(s) : 2 channels
Channel positions : Front: L R
Sampling rate : 48.0 KHz
Bit depth : 16 bits
Compression mode : Lossy
Stream size : 139 MiB (1%)
Title : AVO (Сергей Жучков)
Language : Russian
Default : No
Forced : No

Audio #6
ID : 7
Format : DTS
Format/Info : Digital Theater Systems
Mode : 16
Format settings, Endianness : Big
Codec ID : A_DTS
Duration : 1h 41mn
Bit rate mode : Constant
Bit rate : 1 509 Kbps
Channel(s) : 2 channels
Channel positions : Front: L R
Sampling rate : 48.0 KHz
Bit depth : 24 bits
Compression mode : Lossy
Stream size : 1.07 GiB (8%)
Title : Original
Language : English
Default : No
Forced : No

Text #1
ID : 8
Format : UTF-8
Codec ID : S_TEXT/UTF8
Codec ID/Info : UTF-8 Plain Text
Title : Full
Language : Russian
Default : No
Forced : No

Text #2
ID : 9
Format : UTF-8
Codec ID : S_TEXT/UTF8
Codec ID/Info : UTF-8 Plain Text
Title : Full
Language : English
Default : No
Forced : No

Text #3
ID : 10
Format : UTF-8
Codec ID : S_TEXT/UTF8
Codec ID/Info : UTF-8 Plain Text
Title : SDH
Language : English
Default : No
Forced : No

Menu
00:00:00.000 : en:Chapter 01
00:07:46.090 : en:Chapter 02
00:16:09.593 : en:Chapter 03
00:22:36.646 : en:Chapter 04
00:30:41.840 : en:Chapter 05
00:37:16.234 : en:Chapter 06
00:47:12.162 : en:Chapter 07
00:54:42.904 : en:Chapter 08
01:08:56.465 : en:Chapter 09
01:18:20.278 : en:Chapter 10
01:28:33.391 : en:Chapter 11
01:37:54.952 : en:Chapter 12
01:41:26.205 : en:Chapter 13





Релиз от: by Атлас31
Последний раз редактировалось Gogen 15 май 2019, 07:29, всего редактировалось 1 раз.
Причина: Поглощённый торрент

Боцман
КУБКИ

СТАЖ

МЕДАЛИ


Аватара пользователя
СССР
Korsar
Заслуженный Корсар-Вип+
  • Торрент
Для скачивания торрента необходимо зарегистрироваться или войти на трекер.

Вернуться в Зарубежное кино (1991-2000 / HD Video)



Uptime по данным Ping-Admin.Ru - сервиса мониторинга доступности сайтов
Рейтинг@Mail.ru Голосуйте за наш сайт в каталоге Rubo.Ru