logo
Международный русскоязычный
торрент-трекер
Menu
Doublon
Поделиться с друзьями: 
Голосуй за Корсар и получи 400 дублонов
Рейтинг торрент трекеров - UpTracker.ru

Joe Satriani - Shockwave Supernova - (2015, Instrumental Rock, Hard Rock, Prog Rock) ALAC, lossless

Сообщение Korsar » 11 янв 2017, 22:49

Joe Satriani / Shockwave Supernova

Жанр: Instrumental Rock, Hard Rock, Prog Rock
Носитель: 2LP
Страна-производитель диска: EU
Год издания: 2015
Издатель (лейбл): Sony Music
Номер по каталогу: 88875102901
Страна исполнителя (группы): USA
Аудио кодек: ALAC (*.m4a)
Тип рипа: tracks
Программа-конвертер: XRECODE 2.60
Битрейт аудио: lossless
Продолжительность: 01:03:21
Наличие сканов в содержимом раздачи: да
Тексты: отсутствуют
Треклист:
01. Shockwave Supernova (3:51)
02. Lost In A Memory (4:13)
03. Crazy Joey (3:36)
04. In My Pocket (4:14)
05. On Peregrine Wings (5:22)
06. Cataclysmic (5:03)
07. San Francisco Blue (3:19)
08. Keep On Movin' (4:22)
09. All Of My Life (4:00)
10. A Phase I'm Going Through (3:59)
11. Scarborough Stomp (4:02)
12. Butterfly And Zebra (1:47)
13. If There Is No Heaven (5:05)
14. Stars Race Across The Sky (4:43)
15. Goodbye Supernova (5:44)
Код: Выделить всё
AUDIOCHECKER v2.0 beta (build 457) - by Dester - opdester@freemail.hu
~~~~~~~~~~~~~~~~~~~~~~~~~~~~~~~~~~
-=== НЕ РЕДАКТИРУЙТЕ ЭТОТ ФАЙЛ! ===-

Путь: ...\2015 - Joe Satriani - Shockwave Supernova (2LP, Sony Music, 88875102901, EU, 16-44)

01 -=- A1 - Shockwave Supernova.wav -=- CDDA (100%)
02 -=- A2 - Lost In A Memory.wav -=- CDDA (100%)
03 -=- A3 - Crazy Joey.wav -=- CDDA (100%)
04 -=- A4 - In My Pocket.wav -=- CDDA (100%)
05 -=- B1 - On Peregrine Wings.wav -=- CDDA (100%)
06 -=- B2 - Cataclysmic.wav -=- CDDA (100%)
07 -=- B3 - San Francisco Blue.wav -=- CDDA (100%)
08 -=- B4 - Keep On Movin'.wav -=- CDDA (100%)
09 -=- C1 - All Of My Life.wav -=- CDDA (100%)
10 -=- C2 - A Phase I'm Going Through.wav -=- CDDA (100%)
11 -=- C3 - Scarborough Stomp.wav -=- CDDA (100%)
12 -=- C4 - Butterfly And Zebra.wav -=- CDDA (100%)
13 -=- D1 - If There Is No Heaven.wav -=- CDDA (100%)
14 -=- D2 - Stars Race Across The Sky.wav -=- CDDA (100%)
15 -=- D3 - Goodbye Supernova.wav -=- CDDA (100%)

Сводка 100,00% CDDA

262596452
Доп. информация:
Hannl"limited" Record Cleaning Machine with Rotating Brush
TT: Bergmann Audio "Magne"
Tonearm: Bergmann Magne (tangential air-bearing tonearm)
Cartridge: Transfiguration Phnix S
Phono Amp: MFE Tube One SE
Interconnects: High Tunes "Explorer CMP WBT"
Benchmark ADC 1 USB
AC connects by Goldkabel
Speed verifying with "Platter Speed" both from Dr. Feickert
Wavelab 8 Elements recording software (recording & manual click removal)
*
Vacuum Cleaning > Bergmann Magne > MFE Tube One > PC > Wavelab 8 (24/96) > manual click removal
analyze (no clipping, no DC Bias offset) > split into individual Tracks > FLAC encoded (Vers. 1.21)
*
No silence been removed, please burn gapless to match original tracklayout.
foobar2000 1.3.7 / Dynamic Range Meter 1.1.1
log date: 2015-08-07 02:20:32

--------------------------------------------------------------------------------
Analyzed: Joe Satriani / Shockwave Supernova
--------------------------------------------------------------------------------

DR Peak RMS Duration Track
--------------------------------------------------------------------------------
DR13 -2.20 dB -16.86 dB 3:51 01-Shockwave Supernova
DR12 -1.35 dB -16.70 dB 4:13 02-Lost In A Memory
DR14 -0.62 dB -17.35 dB 3:36 03-Crazy Joey
DR14 -0.44 dB -16.92 dB 4:14 04-In My Pocket
DR13 -1.95 dB -17.09 dB 5:22 05-On Peregrine Wings
DR14 -1.46 dB -17.07 dB 5:03 06-Cataclysmic
DR14 -0.58 dB -17.40 dB 3:19 07-San Francisco Blue
DR12 -1.76 dB -16.88 dB 4:22 08-Keep On Movin'
DR13 0.00 dB -15.34 dB 4:00 09-All Of My Life
DR13 0.00 dB -15.51 dB 3:59 10-A Phase I'm Going Through
DR13 0.00 dB -15.29 dB 4:02 11-Scarborough Stomp
DR8 -9.14 dB -20.01 dB 1:47 12-Butterfly And Zebra
DR13 -0.87 dB -16.34 dB 5:05 13-If There Is No Heaven
DR13 -1.48 dB -17.20 dB 4:43 14-Stars Race Across The Sky
DR14 -0.58 dB -16.84 dB 5:44 15-Goodbye Supernova
--------------------------------------------------------------------------------

Number of tracks: 15
Official DR value: DR13

Samplerate: 96000 Hz
Channels: 2
Bits per sample: 24
Bitrate: 2764 kbps
Codec: FLAC
================================================================================
КУБКИ

СТАЖ

МЕДАЛИ
Награды:36

За помощь проекту (2) Лучший по количеству кубков (2) За отличные раздачи и качество (13) За подробное оформление раздач (1) За отличные комментарии (1) Верный Сид (13) За участие в конкурсах/играх (2)

Аватара пользователя
СССР
Korsar
Главный Модератор-Корсар
  • Торрент
Для скачивания торрента необходимо зарегистрироваться или войти на трекер.

Вернуться в Instrumental Guitar Rock



Uptime по данным Ping-Admin.Ru - сервиса мониторинга доступности сайтов
Рейтинг@Mail.ru Голосуйте за наш сайт в каталоге Rubo.Ru