logo
Международный русскоязычный
торрент-трекер
Menu

Магазин-KorsaRDoublon

Поделиться с друзьями: 
Голосуй и получи дублоны
Рейтинг торрент трекеров - UpTracker.ru

Жить / Ikiru (1952, драма, BDRip 720p) Criterion Collection

Сообщение _denis_100 » 09 янв 2017, 12:59

#777
Русское название: Жить
Оригинальное название: Ikiru
Год выпуска: 1952
Жанр: драма
Выпущено: Япония
Режиссер: Акира Куросава
В ролях: Такаси Симура , Синити Химори , Харуо Танака , Минору Тиаки , Мики Одагири , Бокудзэн Хидари , Миносукэ Ямада , Каматари Фудзивара , Макото Кобори , Нобуо Канэко , Нобуо Накамура , Ацуси Ватанабэ
Перевод: Профессиональный многоголосый


Сюжет фильма:
Старик, узнавший о скорой кончине, узнавший о равнодушии близких, узнавший, что жизнь прожита зря, решает, что детская площадка на месте зловонного пустыря — это то, что он оставит этому миру после себя. Слабый, умирающий старик, покорный, бессловесный чиновник стал борцом.

То упорно настаивая, требуя, то умоляя и унижаясь он проходит все круги бюрократического ада. Он собирает подписи, резолюции, печати. Он не уступает ни перед гневом начальства, ни перед насмешками сослуживцев, ни перед угрозами бандитов.



Качество: BDRip 720p
Формат: AVC (библиотека кодирования x.264)
Контейнер (Расширение): MKV
Видео: 986x720, 9975 Кбит/сек, 23,976 кадр/сек, 0,586 Бит/[Пиксели*Кадры]
Аудио №1: русский / AC3 / 2.0 / 48 kHz / 192 kbps / |Профессиональный многоголосый, DVD Магия|
Аудио №2: русский / AC3 / 2.0 / 48 kHz / 192 kbps / |Профессиональный многоголосый, SomeWax|
Аудио №3: русский / AC3 / 2.0 / 48 kHz / 192 kbps / |Профессиональный многоголосый, Светла|
Аудио №4: японский / FLAC / 1.0 / 48 kHz / 490 kbps
Субтитры: русские, английские
Навигация по главам(Чаптеры): есть
Продолжительность: 02:23:07

Автор рипа: Группа:


Format : Matroska
Format version : Version 2
File size : 11.0 GiB
Duration : 2 h 23 min
Overall bit rate mode : Variable
Overall bit rate : 11.0 Mb/s
Movie name : Ikiru.(1952).BDRip.720p.[denis100]
Encoded date : UTC 2017-01-09 08:58:13
Writing application : mkvmerge v5.8.0 ('No Sleep / Pillow') built on Sep 2 2012 15:37:04
Writing library : libebml v1.2.3 + libmatroska v1.3.0

Video
ID : 1
Format : AVC
Format/Info : Advanced Video Codec
Format profile : High@L4.1
Format settings, CABAC : Yes
Format settings, ReFrames : 9 frames
Codec ID : V_MPEG4/ISO/AVC
Duration : 2 h 23 min
Nominal bit rate : 9 975 kb/s
Width : 986 pixels
Height : 720 pixels
Display aspect ratio : 4:3
Frame rate mode : Constant
Frame rate : 23.976 (24000/1001) FPS
Color space : YUV
Chroma subsampling : 4:2:0
Bit depth : 8 bits
Scan type : Progressive
Bits/(Pixel*Frame) : 0.586
Title : Ikiru.(1952).BDRip.720p.[denis100]
Writing library : x264 core 148 r2744 b97ae06
Encoding settings : cabac=1 / ref=9 / deblock=1:-3:-3 / analyse=0x3:0x133 / me=umh / subme=11 / psy=1 / psy_rd=1.00:0.15 / mixed_ref=1 / me_range=32 / chroma_me=1 / trellis=2 / 8x8dct=1 / cqm=0 / deadzone=21,11 / fast_pskip=0 / chroma_qp_offset=-3 / threads=6 / lookahead_threads=1 / sliced_threads=0 / nr=0 / decimate=1 / interlaced=0 / bluray_compat=0 / constrained_intra=0 / bframes=12 / b_pyramid=2 / b_adapt=2 / b_bias=0 / direct=3 / weightb=1 / open_gop=0 / weightp=2 / keyint=240 / keyint_min=23 / scenecut=40 / intra_refresh=0 / rc=2pass / mbtree=0 / bitrate=9975 / ratetol=1.0 / qcomp=0.60 / qpmin=0 / qpmax=69 / qpstep=4 / cplxblur=20.0 / qblur=0.5 / ip_ratio=1.40 / pb_ratio=1.30 / aq=1:0.75
Language : English
Default : Yes
Forced : No

Audio #1
ID : 2
Format : AC-3
Format/Info : Audio Coding 3
Mode extension : CM (complete main)
Format settings, Endianness : Big
Codec ID : A_AC3
Duration : 2 h 23 min
Bit rate mode : Constant
Bit rate : 192 kb/s
Channel(s) : 2 channels
Channel positions : Front: L R
Sampling rate : 48.0 kHz
Frame rate : 31.250 FPS (1536 spf)
Compression mode : Lossy
Stream size : 197 MiB (2%)
Title : MVO, DVD Магия
Language : Russian
Default : Yes
Forced : No

Audio #2
ID : 3
Format : AC-3
Format/Info : Audio Coding 3
Mode extension : CM (complete main)
Format settings, Endianness : Big
Codec ID : A_AC3
Duration : 2 h 23 min
Bit rate mode : Constant
Bit rate : 192 kb/s
Channel(s) : 2 channels
Channel positions : Front: L R
Sampling rate : 48.0 kHz
Frame rate : 31.250 FPS (1536 spf)
Compression mode : Lossy
Stream size : 197 MiB (2%)
Title : MVO, SomeWax
Language : Russian
Default : No
Forced : No

Audio #3
ID : 4
Format : AC-3
Format/Info : Audio Coding 3
Mode extension : CM (complete main)
Format settings, Endianness : Big
Codec ID : A_AC3
Duration : 2 h 23 min
Bit rate mode : Constant
Bit rate : 192 kb/s
Channel(s) : 2 channels
Channel positions : Front: L R
Sampling rate : 48.0 kHz
Frame rate : 31.250 FPS (1536 spf)
Compression mode : Lossy
Stream size : 197 MiB (2%)
Title : MVO, Светла
Language : Russian
Default : No
Forced : No

Audio #4
ID : 5
Format : FLAC
Format/Info : Free Lossless Audio Codec
Codec ID : A_FLAC
Duration : 2 h 23 min
Bit rate mode : Variable
Channel(s) : 1 channel
Channel positions : Front: C
Sampling rate : 48.0 kHz
Bit depth : 24 bits
Writing library : libFLAC 1.2.1 (UTC 2007-09-17)
Language : Japanese
Default : No
Forced : No

Text #1
ID : 6
Format : UTF-8
Codec ID : S_TEXT/UTF8
Codec ID/Info : UTF-8 Plain Text
Language : Russian
Default : No
Forced : No

Text #2
ID : 7
Format : UTF-8
Codec ID : S_TEXT/UTF8
Codec ID/Info : UTF-8 Plain Text
Language : English
Default : No
Forced : No

Menu
00:00:00.000 : en:Credits
00:02:29.357 : en:The main character
00:06:40.108 : en:Runaround
00:10:32.256 : en:An unusual absence
00:12:02.930 : en:Amateur prognosis
00:15:14.747 : en:Professional prognosis
00:18:23.268 : en:Home
00:22:28.555 : en:Memories
00:30:29.661 : en:Whereabouts unknown
00:33:13.241 : en:A sympathetic ear
00:42:57.074 : en:Night on the town
00:57:50.091 : en:Thirty years for what?
01:07:20.411 : en:An afternoon together
01:11:17.940 : en:Unwrapping the mummy
01:16:05.143 : en:Father and son confrontation
01:19:38.732 : en:Last date with Toyo
01:30:04.565 : en:A new purpose
01:32:18.783 : en:Questioning Watanabe's death
01:36:34.872 : en:A matter of credit
01:40:56.967 : en:Respects paid
01:43:16.440 : en:Making sense of Watanabe
02:12:57.010 : en:The policeman's story
02:20:04.646 : en:Business as usual
02:21:29.105 : en:Watanabe's legacy


Аватара пользователя
_denis_100
Опытный Релизёр-Корсар
 
Месяцев на трекере: 4Месяцев на трекере: 4Месяцев на трекере: 4Месяцев на трекере: 4
 

Награды: 1
Верный Сид (1)
  • Торрент
Автор: _denis_100 Хэш: ---
Добавлен: 09 янв 2017, 12:59 Приватный: Нет (DHT включён)
Статус: Проверен
Размер: 11.04 ГБ (11 854 940 496 байт)
Изменил:
---
Скачали: 44 (Раздающих: 18%)
Причина:
---
Здоровье: 100%
Сидеров: 8 Личеров: 0
Скорость раздачи: 0 байт/сек Скорость скачивания: 0 байт/сек
Последний сидер: 20 дней 13 часов 43 минуты 1 секунду назад Последний личер: Нет
Для скачивания торрента необходимо зарегистрироваться или войти на трекер.

Сообщение filbi1976 » 09 янв 2017, 13:15

Классика! :hi: :good:
Аватара пользователя
filbi1976
Главный-Корсар
 
Месяцев на трекере: 8Месяцев на трекере: 8Месяцев на трекере: 8Месяцев на трекере: 8Месяцев на трекере: 8Месяцев на трекере: 8Месяцев на трекере: 8Месяцев на трекере: 8
 

Награды: 4
За отличные раздачи (3) Верный Сид (1)

Сообщение mister.hats » 09 янв 2017, 13:22

_denis_100 Спасибо :drinks:

Тот кто не с нами,тот против нас
Аватара пользователя
mister.hats
Корсар-Вип
 
Месяцев на трекере: 8Месяцев на трекере: 8Месяцев на трекере: 8Месяцев на трекере: 8Месяцев на трекере: 8Месяцев на трекере: 8Месяцев на трекере: 8Месяцев на трекере: 8
 

Награды: 4
За помощь проекту (3) Верный Сид (1)


Вернуться в Классика зарубежного кино (фильмы до 1980 года / HD Video)

cron
проверить сайт