logo
Международный русскоязычный
торрент-трекер
Menu
Doublon
Поделиться с друзьями: 
Голосуй за Корсар и получи 500 дублонов
Рейтинг торрент трекеров - UpTracker.ru

Жилец / Le locataire (1976, драма, детектив, триллер, BDRip 1080p)

Сообщение msltel » 26 мар 2020, 09:00

Название: Жилец
Оригинальное название: Le Locataire
Год выпуска: 1976
Страна: Франция, США
Жанр: драма, детектив, триллер
Продолжительность: 02:05:28
Перевод: профессиональный многоголосый, авторский
Режиссер: Роман Полански
В ролях: Роман Полански, Изабель Аджани, Мелвин Дуглас, Джо Ван Флит, Бернар Фрессон, Лиля Кедрова, Клод Дофен, Клод Пьеплю, Рюфюс, Роман Бутей

О фильме: Скромный конторский служащий Трелковский решает сменить место проживания и переехать на новое место. Он снимает квартиру в обветшалом здании с недружелюбными соседями. От консьержки он узнаёт, что предыдущая квартирантка Симона покончила с собой, выбросившись из окна. Трелковский старается всё больше и больше узнать о ней как можно больше подробностей. Вскоре он начинает винить соседей в её гибели... Фильм снят по мотивам романа Роланда Топора «Призрачный жилец» (Le Locataire Chimerique, 1964).



Качество: BDRip 1080p
Формат: MKV
Видео: MPEG-4 AVC, 16.5 Mбит/с, 1920x1080
Аудио 1: русский, AC3, 192 kbps, 2 ch, 48 kHz [закадровый многоголосый, 5 канал]
Аудио 2: русский, AC3, 192 kbps, 2 ch, 48 kHz [закадровый многоголосый, Paramount channel]
Аудио 3: русский, AC3, 192 kbps, 2 ch, 48 kHz [закадровый многоголосый, HTB+]
Аудио 4: русский, AC3, 192 kbps, 2 ch, 48 kHz [авторский, Антон Алексеев]
Аудио 5: английский, AC3, 448 kbps, 2 ch, 48 kHz [оригинал]
Субтитры 1: русские (Анастасия Кузнецова)
Субтитры 2: русские
Субтитры 3: английские
Главы/чаптеры

Общее
Уникальный идентификатор : 231716003692019653312886435071889516165 (0xAE52E106D3B0706892F5F81A0B6C2685)
Полное имя : D:\Video\Жилец.1976.BDRip 1080p by msltel.mkv
Формат : Matroska
Версия формата : Version 4
Размер файла : 15,6 Гбайт
Продолжительность : 2 ч. 5 м.
Общий поток : 17,8 Мбит/сек
Название фильма : Rip by msltel
Дата кодирования : UTC 2020-03-25 10:15:22
Программа кодирования : mkvmerge v8.2.0 ('World of Adventure') 64bit
Библиотека кодирования : libebml v1.3.1 + libmatroska v1.4.2

Видео
Идентификатор : 1
Формат : AVC
Формат/Информация : Advanced Video Codec
Профиль формата : High@L4.1
Настройки формата : CABAC / 4 Ref Frames
Параметр CABAC формата : Да
Параметр RefFrames формата : 4 кадра
Идентификатор кодека : V_MPEG4/ISO/AVC
Продолжительность : 2 ч. 5 м.
Битрейт : 16,5 Мбит/сек
Ширина : 1920 пикселей
Высота : 1080 пикселей
Соотношение сторон : 16:9
Режим частоты кадров : Постоянный
Частота кадров : 23,976 (24000/1001) кадра/сек
Цветовое пространство : YUV
Субдискретизация насыщенности : 4:2:0
Битовая глубина : 8 бит
Тип развёртки : Прогрессивная
Бит/(Пиксели*Кадры) : 0.333
Размер потока : 14,5 Гбайт (93%)
Библиотека кодирования : x264 core 159 r2991 1771b55
Настройки программы : cabac=1 / ref=4 / deblock=1:-2:-2 / analyse=0x3:0x113 / me=umh / subme=11 / psy=1 / psy_rd=1.00:0.15 / mixed_ref=1 / me_range=32 / chroma_me=1 / trellis=2 / 8x8dct=1 / cqm=0 / deadzone=21,11 / fast_pskip=0 / chroma_qp_offset=-3 / threads=6 / lookahead_threads=1 / sliced_threads=0 / nr=0 / decimate=1 / interlaced=0 / bluray_compat=0 / constrained_intra=0 / bframes=6 / b_pyramid=2 / b_adapt=2 / b_bias=0 / direct=1 / weightb=1 / open_gop=0 / weightp=2 / keyint=230 / keyint_min=23 / scenecut=40 / intra_refresh=0 / rc_lookahead=40 / rc=crf / mbtree=1 / crf=20.0 / qcomp=0.60 / qpmin=0 / qpmax=69 / qpstep=4 / vbv_maxrate=50000 / vbv_bufsize=62500 / crf_max=0.0 / nal_hrd=none / filler=0 / ip_ratio=1.40 / aq=1:1.00
Язык : English
Default : Да
Forced : Нет

Аудио #1
Идентификатор : 2
Формат : AC-3
Формат/Информация : Audio Coding 3
Коммерческое название : Dolby Digital
Идентификатор кодека : A_AC3
Продолжительность : 2 ч. 5 м.
Вид битрейта : Постоянный
Битрейт : 192 Кбит/сек
Каналы : 2 канала
ChannelLayout : L R
Частота : 48,0 КГц
Частота кадров : 31,250 кадров/сек (1536 SPF)
Метод сжатия : С потерями
Размер потока : 172 Мбайт (1%)
Заголовок : MVO 5 канал
Язык : Russian
ServiceKind/String : Complete Main
Default : Да
Forced : Нет

Аудио #2
Идентификатор : 3
Формат : AC-3
Формат/Информация : Audio Coding 3
Коммерческое название : Dolby Digital
Идентификатор кодека : A_AC3
Продолжительность : 2 ч. 5 м.
Вид битрейта : Постоянный
Битрейт : 192 Кбит/сек
Каналы : 2 канала
ChannelLayout : L R
Частота : 48,0 КГц
Частота кадров : 31,250 кадров/сек (1536 SPF)
Метод сжатия : С потерями
Размер потока : 172 Мбайт (1%)
Заголовок : MVO Paramount channel
Язык : Russian
ServiceKind/String : Complete Main
Default : Нет
Forced : Нет

Аудио #3
Идентификатор : 4
Формат : AC-3
Формат/Информация : Audio Coding 3
Коммерческое название : Dolby Digital
Идентификатор кодека : A_AC3
Продолжительность : 2 ч. 5 м.
Вид битрейта : Постоянный
Битрейт : 192 Кбит/сек
Каналы : 2 канала
ChannelLayout : L R
Частота : 48,0 КГц
Частота кадров : 31,250 кадров/сек (1536 SPF)
Метод сжатия : С потерями
Размер потока : 172 Мбайт (1%)
Заголовок : MVO HTB+
Язык : Russian
ServiceKind/String : Complete Main
Default : Нет
Forced : Нет

Аудио #4
Идентификатор : 5
Формат : AC-3
Формат/Информация : Audio Coding 3
Коммерческое название : Dolby Digital
Идентификатор кодека : A_AC3
Продолжительность : 2 ч. 5 м.
Вид битрейта : Постоянный
Битрейт : 192 Кбит/сек
Каналы : 2 канала
ChannelLayout : L R
Частота : 48,0 КГц
Частота кадров : 31,250 кадров/сек (1536 SPF)
Метод сжатия : С потерями
Размер потока : 172 Мбайт (1%)
Заголовок : Антон Алексеев
Язык : Russian
ServiceKind/String : Complete Main
Default : Нет
Forced : Нет

Аудио #5
Идентификатор : 6
Формат : AC-3
Формат/Информация : Audio Coding 3
Коммерческое название : Dolby Digital
Идентификатор кодека : A_AC3
Продолжительность : 2 ч. 5 м.
Вид битрейта : Постоянный
Битрейт : 448 Кбит/сек
Каналы : 2 канала
ChannelLayout : L R
Частота : 48,0 КГц
Частота кадров : 31,250 кадров/сек (1536 SPF)
Метод сжатия : С потерями
Размер потока : 402 Мбайт (3%)
Заголовок : original
Язык : English
ServiceKind/String : Complete Main
Default : Нет
Forced : Нет

Текст #1
Идентификатор : 7
Формат : UTF-8
Идентификатор кодека : S_TEXT/UTF8
Идентификатор кодека/Информация : UTF-8 Plain Text
Продолжительность : 2 ч. 5 м.
Битрейт : 65 бит/сек
ElementCount : 941
Размер потока : 60,4 Кбайт (0%)
Заголовок : русские Анастасия Кузнецова
Язык : Russian
Default : Нет
Forced : Нет

Текст #2
Идентификатор : 8
Формат : UTF-8
Идентификатор кодека : S_TEXT/UTF8
Идентификатор кодека/Информация : UTF-8 Plain Text
Продолжительность : 2 ч. 4 м.
Битрейт : 66 бит/сек
ElementCount : 906
Размер потока : 60,7 Кбайт (0%)
Заголовок : русские
Язык : Russian
Default : Нет
Forced : Нет

Текст #3
Идентификатор : 9
Формат : UTF-8
Идентификатор кодека : S_TEXT/UTF8
Идентификатор кодека/Информация : UTF-8 Plain Text
Продолжительность : 2 ч. 2 м.
Битрейт : 40 бит/сек
ElementCount : 984
Размер потока : 36,3 Кбайт (0%)
Заголовок : английские
Язык : English
Default : Нет
Forced : Нет

Меню
00:00:00.000 : en:Chapter 1
00:15:00.000 : en:Chapter 2
00:30:00.000 : en:Chapter 3
00:45:00.000 : en:Chapter 4
01:00:00.000 : en:Chapter 5
01:15:00.000 : en:Chapter 6
01:30:00.000 : en:Chapter 7
01:45:00.000 : en:Chapter 8
02:00:00.000 : en:Chapter 9


"И не совершил там многих чудес по неверию их." (Евангелие от Матфея)
КУБКИ

СТАЖ

МЕДАЛИ
Награды:34

За отличные раздачи и качество (19) Почётный форумчанин (1) Верный Сид (11)

Аватара пользователя
Russia
msltel
Уважаемый Релизёр-Корсар
  • Торрент
Для скачивания торрента необходимо зарегистрироваться или войти на трекер.

Вернуться в Классика зарубежного кино (фильмы до 1980 года / HD Video)



Uptime по данным Ping-Admin.Ru - сервиса мониторинга доступности сайтов
Рейтинг@Mail.ru