logo
Международный русскоязычный
торрент-трекер
Menu
Поделиться с друзьями: 
Голосуй за Корсар и получи 500 дублонов
Рейтинг торрент трекеров - UpTracker.ru

Жил-был пёс (1982, мультфильм, короткометражка, WEBRip) - ExKinoRay | KПK

Сообщение Шкипер » 29 июн 2020, 19:43

Название: Жил-был пёс
Год выпуска: 1982
Жанр: мультфильм, короткометражка
Режиссёр: Эдуард Назаров
В ролях: Георгий Бурков, Армен Джигарханян, Эдуард Назаров

О фильме: Жил-был пёс. Верно служил, но выгнали его по старости. И решил он повеситься, да повстречал в лесу такого же старого волка…



Выпущено: СССР, Союзмультфильм
Перевод: Не требуется
Продолжительность: 00:10:00

Видео кодек: x264
Качество: WEBRip
Видео: MPEG-4 AVC, 640x480, 25.000 fps, 900 kbps avg
Битрейт аудио: AAC LC, 2 ch, 96 Кбит/с


Автор:
Группа:

General
Complete name : D:\Жил-был пес.(640x).WEBRip-КПК by ExKinoRay & Shkiper.mp4
Format : MPEG-4
Format profile : Base Media
Codec ID : isom (isom)
File size : 71.6 MiB
Duration : 10 min 0 s
Overall bit rate mode : Variable
Overall bit rate : 1 001 kb/s
Encoded date : UTC 2020-06-29 09:06:42
Tagged date : UTC 2020-06-29 09:06:42

Video
ID : 1
Format : AVC
Format/Info : Advanced Video Codec
Format profile : High@L4.1
Format settings : CABAC / 10 Ref Frames
Format settings, CABAC : Yes
Format settings, Reference : 10 frames
Codec ID : avc1
Codec ID/Info : Advanced Video Coding
Duration : 10 min 0 s
Bit rate : 900 kb/s
Maximum bit rate : 2 297 kb/s
Width : 640 pixels
Height : 480 pixels
Display aspect ratio : 4:3
Frame rate mode : Constant
Frame rate : 25.000 FPS
Color space : YUV
Chroma subsampling : 4:2:0
Bit depth : 8 bits
Scan type : Progressive
Bits/(Pixel*Frame) : 0.117
Stream size : 64.4 MiB (90%)
Writing library : x264 core 146 r2538 121396c
Encoding settings : cabac=1 / ref=10 / deblock=1:-3:-3 / analyse=0x3:0x113 / me=umh / subme=11 / psy=1 / psy_rd=1.00:0.00 / mixed_ref=1 / me_range=48 / chroma_me=1 / trellis=2 / 8x8dct=1 / cqm=0 / deadzone=21,11 / fast_pskip=0 / chroma_qp_offset=-2 / threads=3 / lookahead_threads=1 / sliced_threads=0 / nr=0 / decimate=0 / interlaced=0 / bluray_compat=0 / constrained_intra=0 / bframes=10 / b_pyramid=2 / b_adapt=2 / b_bias=0 / direct=3 / weightb=1 / open_gop=0 / weightp=2 / keyint=240 / keyint_min=24 / scenecut=40 / intra_refresh=0 / rc_lookahead=40 / rc=2pass / mbtree=0 / bitrate=900 / ratetol=1.0 / qcomp=0.60 / qpmin=0 / qpmax=69 / qpstep=4 / cplxblur=20.0 / qblur=0.5 / vbv_maxrate=14000 / vbv_bufsize=14000 / nal_hrd=none / filler=0 / ip_ratio=1.40 / pb_ratio=1.30 / aq=1:1.00
Encoded date : UTC 2020-06-29 08:48:19
Tagged date : UTC 2020-06-29 09:06:43
Codec configuration box : avcC

Audio
ID : 2
Format : AAC LC
Format/Info : Advanced Audio Codec Low Complexity
Codec ID : mp4a-40-2
Duration : 10 min 0 s
Bit rate mode : Variable
Bit rate : 96.0 kb/s
Maximum bit rate : 99.4 kb/s
Channel(s) : 2 channels
Channel layout : L R
Sampling rate : 48.0 kHz
Frame rate : 46.875 FPS (1024 SPF)
Compression mode : Lossy
Stream size : 6.87 MiB (10%)
Language : Russian
Encoded date : UTC 2020-06-29 08:55:52
Tagged date : UTC 2020-06-29 09:06:43
КУБКИ

СТАЖ

МЕДАЛИ
Награды:21

За отличные раздачи и качество (15) За подробное оформление раздач (1) Почётный форумчанин (2)

Аватара пользователя
Шкипер
Уважаемый Релизёр-Корсар
  • Торрент
Для скачивания торрента необходимо зарегистрироваться или войти на трекер.

Вернуться в Отечественные мультфильмы



Uptime по данным Ping-Admin.Ru - сервиса мониторинга доступности сайтов
Рейтинг@Mail.ru