logo
Международный русскоязычный
торрент-трекер
Menu

Doublon
Поделиться с друзьями: 
Голосуй за Корсар и получи 150 дублонов
Рейтинг торрент трекеров - UpTracker.ru

Женись на мне, чувак / Épouse-moi mon pote (2017, комедия, WEB-DLRip-AVC) | iTunes

Сообщение Gogen » 13 фев 2018, 20:34

Название: Женись на мне, чувак
Оригинальное название: Épouse-moi mon pote
Год выпуска: 2017
Страна: Франция
Жанр: комедия
Перевод: Дублированный [iTunes]
Продолжительность: 01:27:59
Режиссер: Тарек Будали
В ролях: Тарек Будали (Yassine), Филипп Лашо (Fred), Шарлотта Габрис (Lisa), Анди (Claire), Давид Марсе (Stan), Жюльен Аррути (L'aveugle), Байа Белаль (Ima), Филипп Дюкен (Dussart), Зинедин Суалем (Le père de Yassine), Дуду Маста (Daoud), Ив Пиньо (Le maire), Фатсах Буяхмед (L'inspecteur marocain)

Описание: Единственный шанс для провалившего экзамен студента остаться в Париже - это фиктивный брак. Однако, найти невесту так быстро практически невозможно. И тогда на помощь приходит лучший друг.



Качество: WEB-DLRip-AVC
Формат: MKV
Видео: AVC, 1024x576 (16:9), 2300 kbps, 25 fps, 0,156 bpp
Аудио: русский / AC3 / 5.1 / 48 kHz / 384 kbps / ||
Навигация по главам: есть


Релиз от:


General
Unique ID : 210298962262881330131410504454464874894 (0x9E361B5BCDC43ACBA03EE1C4FE84298E)
Complete name : E:Epouse_moi.mon.pote.2017.WEB-DLRip-AVC.by.White Smoke.R.G.Generalfilm.mkv
Format : Matroska
Format version : Version 4 / Version 2
File size : 1.65 GiB
Duration : 1 h 27 min
Overall bit rate : 2 685 kb/s
Movie name : Epouse_moi.mon.pote.2017.WEB-DLRip-AVC.by.White Smoke.R.G.Generalfilm.mkv
Encoded date : UTC 2018-02-10 12:43:05
Writing application : mkvmerge v6.8.0 ('Theme for Great Cities') 64bit built on Mar 2 2014 21:34:26
Writing library : libebml v1.3.0 + libmatroska v1.4.1

Video
ID : 1
Format : AVC
Format/Info : Advanced Video Codec
Format profile : High@L4.1
Format settings, CABAC : Yes
Format settings, ReFrames : 10 frames
Codec ID : V_MPEG4/ISO/AVC
Duration : 1 h 27 min
Bit rate : 2 300 kb/s
Width : 1 024 pixels
Height : 576 pixels
Display aspect ratio : 16:9
Frame rate mode : Constant
Frame rate : 25.000 FPS
Color space : YUV
Chroma subsampling : 4:2:0
Bit depth : 8 bits
Scan type : Progressive
Bits/(Pixel*Frame) : 0.156
Stream size : 1.38 GiB (84%)
Writing library : x264 core 148 r2638 7599210
Encoding settings : cabac=1 / ref=10 / deblock=1:-2:-1 / analyse=0x3:0x113 / me=umh / subme=11 / psy=1 / psy_rd=0.00:0.15 / mixed_ref=1 / me_range=32 / chroma_me=1 / trellis=2 / 8x8dct=1 / cqm=0 / deadzone=21,11 / fast_pskip=0 / chroma_qp_offset=-3 / threads=6 / lookahead_threads=1 / sliced_threads=0 / nr=0 / decimate=1 / interlaced=0 / bluray_compat=0 / constrained_intra=0 / bframes=10 / b_pyramid=2 / b_adapt=2 / b_bias=0 / direct=1 / weightb=1 / open_gop=0 / weightp=2 / keyint=250 / keyint_min=25 / scenecut=40 / intra_refresh=0 / rc_lookahead=40 / rc=2pass / mbtree=1 / bitrate=2300 / ratetol=1.0 / qcomp=0.65 / qpmin=0 / qpmax=69 / qpstep=4 / cplxblur=20.0 / qblur=0.5 / vbv_maxrate=50000 / vbv_bufsize=65500 / nal_hrd=none / filler=0 / ip_ratio=1.40 / aq=1:1.00
Language : English
Default : Yes
Forced : No

Audio
ID : 2
Format : AC-3
Format/Info : Audio Coding 3
Mode extension : CM (complete main)
Format settings, Endianness : Big
Codec ID : A_AC3
Duration : 1 h 27 min
Bit rate mode : Constant
Bit rate : 384 kb/s
Channel(s) : 6 channels
Channel positions : Front: L C R, Side: L R, LFE
Sampling rate : 48.0 kHz
Frame rate : 31.250 FPS (1536 spf)
Compression mode : Lossy
Stream size : 242 MiB (14%)
Title : iTunes
Language : Russian
Default : Yes
Forced : No

Menu
00:00:00.000 : en:Глава 1
00:07:03.000 : en:Глава 2
00:14:06.200 : en:Глава 3
00:22:33.160 : en:Глава 4
00:30:19.760 : en:Глава 5
00:37:39.919 : en:Глава 6
00:44:53.558 : en:Глава 7
00:51:55.677 : en:Глава 8
00:59:13.436 : en:Глава 9
01:06:25.956 : en:Глава 10
01:15:28.955 : en:Глава 11


Аватара пользователя
Gogen
Заслуженный Релизёр-Корсар
 
 

Награды: 37
Лучший по количеству кубков (13) За отличные раздачи и качество (18) За подробное оформление раздач (1) Верный Сид (2)
  • Торрент
Для скачивания торрента необходимо зарегистрироваться или войти на трекер.

Вернуться в Зарубежное кино (2011-2018)



Uptime по данным Ping-Admin.Ru - сервиса мониторинга доступности сайтов
Рейтинг@Mail.ru