logo
Международный русскоязычный
торрент-трекер
Menu

Doublon
Поделиться с друзьями: 
Голосуй за Корсар и получи 400 дублонов
Рейтинг торрент трекеров - UpTracker.ru

Железный орёл / Iron Eagle (1986, Боевик, триллер, военный, WEB-DL 1080p) - KORSAR

Сообщение MZMA » 20 июн 2018, 20:41

Название: Железный орёл
Оригинальное название: Iron Eagle
Год выпуска: 1986
Выпущено: США, Израиль, Канада, Delphi, Falcon's Flight, TriStar Pictures
Жанр: Боевик, триллер, военный
Режиссер: Сидни Дж. Фьюри
В ролях: Луис Госсет мл., Джейсон Гедрик, Тим Томерсон, Лэрри Б. Скотт, Кэролайн Лагерфелт, Джерри Ливайн, Робби Раст, Майкл Боуэн, Роберт Джейн, Мелора Хардин

О фильме: Восемнадцатилетний Даг Мастерс научился летать на реактивном истребителе раньше, чем получил права на вождение автомобиля. Он хочет во всем походить на своего отца, полковника Теда Мастерса. Даг подает свои документы в летную школу, но его не принимают из-за плохой успеваемости. Сослуживцы Теда Мастерса приносят его семье печальное известие о том, что самолет полковника сбит, а сам он находится в плену во враждебно настроенном государстве. Правительству США не удается вернуть военного летчика на родину, но Даг принимает решение вызволить отца из плена самостоятельно. Он обращается за помощью к полковнику в отставке Чаппи Синклеру. Чаппи был военным летчиком и специализировался на организации спасательных операций. Чаппи арендует на свое имя военный истребитель для Дага. Отважный юноша, полный решимости вернуть отца домой живым, взмывает ввысь…



Продолжительность: 01:56:33
Перевод: Дублированный, любительский
Субтитры: Английские
Навигация по главам: Есть

Качество: WEB-DL 1080p
Видео: MPEG-4 AVC, 14,2 Мбит/сек, 1920x1080, 23,976 кадра/сек
Аудио #1: AC3, 2 ch, 192 Кбит/сек | Русский, профессиональный (полное дублирование) Варус Видео
Аудио #2: AC3, 2 ch, 192 Кбит/сек | Русский, любительский (одноголосый закадровый)
Аудио #3: EAC3, 6 ch, 640 Кбит/сек | Английский, оригинал

Сборка:


Общее
Уникальный идентификатор : 191312909220492679294701669721167603334 (0x8FED86ABF864E9278A9E05F6930FA686)
Полное имя : Железный.орёл.1986.WEB-DL.1080p.mkv
Формат : Matroska
Версия формата : Version 2
Размер файла : 12,7 Гбайт
Продолжительность : 1 ч. 56 м.
Режим общего битрейта : Переменный
Общий поток : 15,6 Мбит/сек
Дата кодирования : UTC 2018-06-20 17:09:57
Программа кодирования : mkvmerge v5.8.0 ('No Sleep / Pillow') built on Sep 2 2012 15:37:04
Библиотека кодирования : libebml v1.2.3 + libmatroska v1.3.0

Видео
Идентификатор : 1
Формат : AVC
Формат/Информация : Advanced Video Codec
Профиль формата : High@L4
Настройки формата : CABAC / 4 Ref Frames
Параметр CABAC формата : Да
Параметр RefFrames формата : 4 кадра
Идентификатор кодека : V_MPEG4/ISO/AVC
Продолжительность : 1 ч. 56 м.
Вид битрейта : Переменный
Битрейт : 14,2 Мбит/сек
Максимальный битрейт : 15,0 Мбит/сек
Ширина : 1920 пикселей
Высота : 1080 пикселей
Соотношение сторон : 16:9
Режим частоты кадров : Постоянный
Частота кадров : 23,976 (24000/1001) кадра/сек
Цветовое пространство : YUV
Субдискретизация насыщенности : 4:2:0
Битовая глубина : 8 бит
Тип развёртки : Прогрессивная
Бит/(Пиксели*Кадры) : 0.286
Размер потока : 11,6 Гбайт (91%)
Библиотека кодирования : x264 core 148 r2623 d5b2374
Настройки программы : cabac=1 / ref=4 / deblock=1:-1:-1 / analyse=0x3:0x133 / me=umh / subme=9 / psy=1 / psy_rd=1.00:0.15 / mixed_ref=1 / me_range=24 / chroma_me=1 / trellis=2 / 8x8dct=1 / cqm=0 / deadzone=21,11 / fast_pskip=1 / chroma_qp_offset=-3 / threads=34 / lookahead_threads=5 / sliced_threads=0 / nr=150 / decimate=1 / interlaced=0 / bluray_compat=0 / constrained_intra=0 / bframes=8 / b_pyramid=2 / b_adapt=2 / b_bias=0 / direct=3 / weightb=1 / open_gop=0 / weightp=2 / keyint=120 / keyint_min=61 / scenecut=0 / intra_refresh=0 / rc_lookahead=120 / rc=crf / mbtree=1 / crf=18.0 / qcomp=0.60 / qpmin=0 / qpmax=69 / qpstep=4 / vbv_maxrate=15000 / vbv_bufsize=31250 / crf_max=0.0 / nal_hrd=vbr / filler=0 / ip_ratio=1.40 / aq=3:1.00
Язык : English
Default : Да
Forced : Нет
Цветовой диапазон : Limited
Основные цвета : BT.709
Характеристики трансфера : BT.709
Коэффициенты матрицы : BT.709

Аудио #1
Идентификатор : 2
Формат : AC-3
Формат/Информация : Audio Coding 3
Идентификатор кодека : A_AC3
Продолжительность : 1 ч. 56 м.
Вид битрейта : Постоянный
Битрейт : 192 Кбит/сек
Каналы : 2 канала
Расположение каналов : Front: L R
Частота : 48,0 КГц
Частота кадров : 31,250 кадров/сек (1536 SPF)
Битовая глубина : 16 бит
Метод сжатия : С потерями
Размер потока : 160 Мбайт (1%)
Заголовок : DUB | Варус Видео
Язык : Russian
По умолчанию : Да
Принудительно : Нет

Аудио #2
Идентификатор : 3
Формат : AC-3
Формат/Информация : Audio Coding 3
Идентификатор кодека : A_AC3
Продолжительность : 1 ч. 56 м.
Вид битрейта : Постоянный
Битрейт : 192 Кбит/сек
Каналы : 2 канала
Расположение каналов : Front: L R
Частота : 48,0 КГц
Частота кадров : 31,250 кадров/сек (1536 SPF)
Битовая глубина : 16 бит
Метод сжатия : С потерями
Размер потока : 160 Мбайт (1%)
Заголовок : VO
Язык : Russian
По умолчанию : Нет
Принудительно : Нет

Аудио #3
Идентификатор : 4
Формат : E-AC-3
Формат/Информация : Enhanced Audio Coding 3
Идентификатор кодека : A_EAC3
Продолжительность : 1 ч. 56 м.
Вид битрейта : Постоянный
Битрейт : 640 Кбит/сек
Каналы : 6 каналов
Расположение каналов : Front: L C R, Side: L R, LFE
Частота : 48,0 КГц
Частота кадров : 187,500 кадров/сек (256 SPF)
Метод сжатия : С потерями
Размер потока : 534 Мбайт (4%)
Заголовок : Original
Язык : English
По умолчанию : Нет
Принудительно : Нет

Текст #1
Идентификатор : 5
Формат : UTF-8
Идентификатор кодека : S_TEXT/UTF8
Идентификатор кодека/Информация : UTF-8 Plain Text
Язык : English
По умолчанию : Нет
Принудительно : Нет

Текст #2
Идентификатор : 6
Формат : UTF-8
Идентификатор кодека : S_TEXT/UTF8
Идентификатор кодека/Информация : UTF-8 Plain Text
Заголовок : SDH
Язык : English
По умолчанию : Нет
Принудительно : Нет

Меню
00:00:00.000 : en:Start
00:02:04.000 : en:No Drill
00:09:07.000 : en:Not Qualified
00:12:39.000 : en:The Snake
00:25:52.000 : en:On Trial
00:28:00.000 : en:Guilty
00:29:45.000 : en:Simulation
00:37:44.100 : en:Graduation Day
00:42:56.000 : en:Confession Man
00:44:04.000 : en:The Eagles
00:48:27.000 : en:Enlisting Chappy
00:56:59.050 : en:A Stubbon Man
00:57:31.000 : en:Falcons to Go
01:02:54.000 : en:"Proud Mary"
01:13:49.000 : en:OK for Take-Off
01:20:37.000 : en:II Kharem
01:22:36.000 : en:Three MIGs
01:27:44.400 : en:"May Day"
01:28:13.000 : en:Chappy's Tape
01:31:16.000 : en:"Gimme Some Lovin"
01:32:24.300 : en:"This Is Iron Eagle. "
01:33:27.000 : en:Losing a Refinery
01:36:38.000 : en:"Kill Him Now. "
01:39:43.000 : en:Rescuing the Colonel
01:43:15.000 : en:Minister vs Iron Eagle
01:44:45.000 : en:The Cavalry Arrives
01:48:25.000 : en:Review Board
01:50:28.600 : en:Heroes' Welcome

• Исходник видео WEB-DL Amazon.
КУБКИ

СТАЖ

МЕДАЛИ
Награды:78

За помощь проекту (3) Лучший по количеству кубков (6) За отличные раздачи и качество (44) За подробное оформление раздач (11) Верный Сид (12)

Аватара пользователя
СССР
MZMA
Главный Модератор-Корсар
Раздачи группы KORSAR разрешено перезаливать спустя сутки после публикации
  • Торрент
Для скачивания торрента необходимо зарегистрироваться или войти на трекер.

Вернуться в Зарубежное кино (1981-1990)



Uptime по данным Ping-Admin.Ru - сервиса мониторинга доступности сайтов
Рейтинг@Mail.ru Голосуйте за наш сайт в каталоге Rubo.Ru