logo
Международный русскоязычный
торрент-трекер
Menu

Doublon
Поделиться с друзьями: 
Голосуй за Корсар и получи 150 дублонов
Рейтинг торрент трекеров - UpTracker.ru

Жаворонок (1964, Военный, Драма, DVDRip-AVC) - KORSAR

Сообщение filbi1976 » 15 май 2018, 19:08

Жаворонок

Год выпуска: 1964
Жанр: Военный, Драма
Продолжительность: 01:25:37
Режиссер: Никита Курихин, Леонид Менакер
В ролях: Вячеслав Гуренков, Геннадий Юхтин, Валерий Погорельцев, Валентинс Скулме, Бруно Оя, Эрвин Абель, Жанис Катлапс, Хейно Мандри, Гунар Плаценс, Олев Тинн, Я. Юров, Жанна Шабалина, Любовь Малиновская, Юлия Диоши, М. Тулэ, Александр Афанасьев

Описание: В основу фильма положен подлинный факт.
Действия происходят в глубоком тылу Германии. Для улучшения характеристик противотанковых орудий, немцы использовали захваченные трофейные танки Красной Армии в качестве «живых» мишеней. Экипажи машин укомплектовывали военнопленными танкистами и гражданскими лицами из концлагерей. Фильм повествует о бегстве из плена одного из таких экипажей на танке Т-34.

Кодек: х264
Качество: DVDRip-AVC
Видео: MPEG-4 AVC, 708x576@755x576, 25 fps, 1987 Кбит/с
Звук: AC3, 2 ch, 192 Кбит/с



Общее
Уникальный идентификатор : 215335559965639555322982139762596169204 (0xA2001ECC2C1AF34CA783F29E6CFCC5F4)
Полное имя : D:\Жаворонок_1964-DVDRip-AVC_KORSAR.mkv
Формат : Matroska
Версия формата : Version 2
Размер файла : 1,33 Гбайт
Продолжительность : 1 ч. 25 м.
Общий поток : 2223 Кбит/сек
Дата кодирования : UTC 2018-05-15 17:09:48
Программа кодирования : mkvmerge v5.8.0 ('No Sleep / Pillow') built on Sep 2 2012 15:37:04
Библиотека кодирования : libebml v1.2.3 + libmatroska v1.3.0

Видео
Идентификатор : 1
Формат : AVC
Формат/Информация : Advanced Video Codec
Профиль формата : High@L4.1
Параметр CABAC формата : Да
Параметр RefFrames формата : 15 кадров
Идентификатор кодека : V_MPEG4/ISO/AVC
Продолжительность : 1 ч. 25 м.
Битрейт : 1987 Кбит/сек
Ширина : 708 пикселей
Высота : 576 пикселей
Соотношение сторон : 4:3
Режим частоты кадров : Постоянный
Частота кадров : 25,000 кадров/сек
Цветовое пространство : YUV
Субдискретизация насыщенности : 4:2:0
Битовая глубина : 8 бит
Тип развёртки : Прогрессивная
Бит/(Пиксели*Кадры) : 0.195
Размер потока : 1,19 Гбайт (89%)
Библиотека кодирования : x264 core 152 r2851kMod ba24899
Настройки программы : cabac=1 / ref=15 / deblock=1:-2:-1 / analyse=0x3:0x133 / me=umh / subme=10 / psy=1 / fade_compensate=0.00 / psy_rd=1.05:0.10 / mixed_ref=1 / me_range=32 / chroma_me=1 / trellis=2 / 8x8dct=1 / cqm=0 / deadzone=21,11 / fast_pskip=1 / chroma_qp_offset=-3 / threads=12 / lookahead_threads=3 / sliced_threads=0 / nr=0 / decimate=1 / interlaced=0 / bluray_compat=0 / constrained_intra=0 / bframes=11 / b_pyramid=2 / b_adapt=2 / b_bias=0 / direct=1 / weightb=1 / open_gop=0 / weightp=2 / keyint=250 / keyint_min=25 / scenecut=40 / intra_refresh=0 / rc=crf / mbtree=0 / crf=18.0000 / qcomp=0.63 / qpmin=0 / qpmax=39 / qpstep=4 / ip_ratio=1.40 / pb_ratio=1.30 / aq=1:0.80
Язык : English
Default : Да
Forced : Нет
Цветовой диапазон : Limited
Основные цвета : BT.709
Характеристики трансфера : BT.709
Коэффициенты матрицы : BT.709

Аудио
Идентификатор : 2
Формат : AC-3
Формат/Информация : Audio Coding 3
Параметр Endianness формата : Big
Идентификатор кодека : A_AC3
Продолжительность : 1 ч. 25 м.
Вид битрейта : Постоянный
Битрейт : 192 Кбит/сек
Каналы : 2 канала
Расположение каналов : Front: L R
Частота : 48,0 КГц
Частота кадров : 31,250 кадров/сек (1536 SPF)
Битовая глубина : 16 бит
Метод сжатия : С потерями
Размер потока : 118 Мбайт (9%)
Язык : Russian
ServiceKind/String : Complete Main
Default : Да
Forced : Нет

Аватара пользователя
filbi1976
Администратор-Корсар
 
 

Награды: 40
За отличные раздачи и качество (30) Верный Сид (7) За участие в конкурсах (1)
Раздачи группы KORSAR разрешено перезаливать спустя сутки после публикации
  • Торрент
Для скачивания торрента необходимо зарегистрироваться или войти на трекер.

Сообщение Bulfrogg » 15 май 2018, 20:04

Вау!!! Сергей - СПАСИБИЩЕ !!!
Какой фильм!!! :good:
Аватара пользователя
Bulfrogg
Заслуженный Корсар-Вип
 
 

Награды: 21
За помощь проекту (11) Лучший по количеству кубков (2) За отличные комментарии (1) Верный Сид (7)

Сообщение verybigpapa » 15 май 2018, 20:06

Уважаемый filbi1976, большое спасибо. :hi: :respect:
Улыбайтесь, господа! Улыбайтесь!
Аватара пользователя
verybigpapa
Заслуженный Корсар-Вип
 
 

Награды: 27
За помощь проекту (12) Лучший по количеству кубков (6) За отличные комментарии (4) Верный Сид (5)

Сообщение Generall » 15 май 2018, 20:21

НЕ плохо фильм :hi:
Аватара пользователя
Generall
Опытный Релизёр-Корсар
 

Награды: 7
За отличные раздачи и качество (3) Верный Сид (1)

Сообщение vladshkanov » 15 май 2018, 20:52

Большое спасибо за качественный фильм!!! :10 balov: :hi:
Аватара пользователя
vladshkanov
Заслуженный Корсар-Вип
 
 

Награды: 3
За помощь проекту (1) За отличные комментарии (1) Верный Сид (1)

Сообщение Rikmaster » 15 май 2018, 22:53

От всей души благодарю Вас, уважаемый filbi1976, за выполненный заказ отличнейшего, и очень мною любимого, советского кинофильма. :hi: :good:
Аватара пользователя
Rikmaster
Опытный Корсар
 
 

Награды: 1
Верный Сид (1)

Сообщение alcominimalist » 16 май 2018, 08:18

Спасибо! :hi: Хорошее кино.
Основой сюжета картины ''Жаворонок'' стала пьеса Самуила Алёшина ''Каждому своё''. Она была написана после посещения драматургом 39-ой гвардейской мотострелковой дивизии в Германии, где ему рассказали о случае побега советских военнопленных на танке Т-34.

Натуральные сцены снимались в Закарпатье.
В фильме участвовал настоящий танк Т-34/76 образца 1942 года, восстановленный специально для съёмок.
В съёмках сцены, в которой героя Геннадия Юхтина, немцы с собаками загоняют в речку, Юхтину приходилось уворачиваться от привезённых пограничных овчарок, которые по настоящему хотели его укусить.
А на съёмках другого эпизода, Юхтин едва успел убрать ногу за секунду до того как по месту, где она находилась, прошла гусеница танка.
Аватара пользователя
alcominimalist
Заслуженный Корсар
 
 

Награды: 18
Лучший по количеству кубков (2) За отличные комментарии (7) Почётный форумчанин (2) Верный Сид (4) За участие в конкурсах (3)

Сообщение Bars_St » 16 май 2018, 16:14

Огромное СПАСИБО!!! :hi: :hi: :hi: Фильм на все времена... :good: :good: :good:
Аватара пользователя
Bars_St
Заслуженный Корсар-Вип
 
 

Награды: 21
За помощь проекту (7) Лучший по количеству кубков (2) За отличные комментарии (7) Верный Сид (5)

Сообщение filbi1976 » 16 май 2018, 16:40

Всем пожалуйста!
Аватара пользователя
filbi1976
Администратор-Корсар
 
 

Награды: 40
За отличные раздачи и качество (30) Верный Сид (7) За участие в конкурсах (1)

Сообщение Бользен » 17 май 2018, 10:39

Благодарю.
Аватара пользователя
Бользен
Уважаемый Корсар
 
 

Награды: 4
Лучший по количеству кубков (1) За отличные комментарии (1) Верный Сид (2)


Вернуться в Кино времён СССР



Uptime по данным Ping-Admin.Ru - сервиса мониторинга доступности сайтов
Рейтинг@Mail.ru