logo
Международный русскоязычный
торрент-трекер
Menu
Doublon
Поделиться с друзьями: 
Голосуй за Корсар и получи 400 дублонов
Рейтинг торрент трекеров - UpTracker.ru

Жаркие летние ночи / Hot Summer Nights Goats (2017, драма, WEB-DL 1080p)

Сообщение Korsarka » 10 авг 2018, 05:52

Название: Жаркие летние ночи
Оригинальное название: Hot Summer Nights
Год выхода: 2017
Жанр: Драма
Режиссер: Элайджа Байнум
В ролях: Тимоти Шаламе, Майка Монро, Алекс Роу, Эмори Коэн, Томас Джейн, Майя Митчелл, Уильям Фихтнер, Джанин Серраллес, Риз Эннис, Джек Кеси



О фильме: Это знойное лето Дэниэл запомнит надолго, ведь он умудрился одновременно связаться с наркоторговцами и влюбиться в лучшую девушку американского полуострова Кейп-Код. Все бы ничего, но красавица - сестра главного гангстера на этом курорте.

Страна: ША
Студия: Imperative Entertainment
Продолжительность: 01:47:49
Перевод: Профессиональный многоголосый | HDRezka Studio

Качество: WEB-DL 1080p
Видео: MPEG-4 AVC, 1920x816, 7100 Kbit/s, 23.976 fps
Звук:
Аудио #01: 48 kHz, AC3, 2.0, 384 Kbps | Профессиональный многоголосый | RUS |
Аудио #02: 48 kHz, E-AC3, 5.1, 640 Kbps | Оригинал | ENG |
Субтитры: Русские (Full), английские




General
Unique ID : 187906342743068615485380886523351114729 (0x8D5D71FA210AA9F7B5559FE5F2E7A3E9)
Complete name : D:Video111Hot.Summer.Nights.2017.AMZN.WEB-DL.1080p.ExKinoRay.mkv
Format : Matroska
Format version : Version 4 / Version 2
File size : 6.12 GiB
Duration : 1 h 47 min
Overall bit rate : 8 127 kb/s
Movie name : Hot Summer Nights 2017 from ExKinoRay
Encoded date : UTC 2018-08-10 00:32:05
Writing application : mkvmerge v23.0.0 ('The Bride Said No') 64-bit
Writing library : libebml v1.3.6 + libmatroska v1.4.9

Video
ID : 1
Format : AVC
Format/Info : Advanced Video Codec
Format profile : High@L4
Format settings : CABAC / 4 Ref Frames
Format settings, CABAC : Yes
Format settings, ReFrames : 4 frames
Codec ID : V_MPEG4/ISO/AVC
Duration : 1 h 47 min
Bit rate : 7 100 kb/s
Width : 1 920 pixels
Height : 816 pixels
Display aspect ratio : 2.35:1
Frame rate mode : Constant
Frame rate : 23.976 (24000/1001) FPS
Color space : YUV
Chroma subsampling : 4:2:0
Bit depth : 8 bits
Scan type : Progressive
Bits/(Pixel*Frame) : 0.189
Stream size : 5.35 GiB (87%)
Language : English
Default : Yes
Forced : No
Color range : Limited
Color primaries : BT.709
Transfer characteristics : BT.709
Matrix coefficients : BT.709

Audio #1
ID : 2
Format : AC-3
Format/Info : Audio Coding 3
Commercial name : Dolby Digital
Codec ID : A_AC3
Duration : 1 h 47 min
Bit rate mode : Constant
Bit rate : 384 kb/s
Channel(s) : 2 channels
Channel positions : Front: L R
Sampling rate : 48.0 kHz
Frame rate : 31.250 FPS (1536 SPF)
Bit depth : 16 bits
Compression mode : Lossy
Stream size : 296 MiB (5%)
Title : MVO [HDRezka Studio]
Language : Russian
Service kind : Complete Main
Default : Yes
Forced : Yes

Audio #2
ID : 3
Format : E-AC-3
Format/Info : Enhanced AC-3
Commercial name : Dolby Digital Plus
Codec ID : A_EAC3
Duration : 1 h 47 min
Bit rate mode : Constant
Bit rate : 640 kb/s
Channel(s) : 6 channels
Channel positions : Front: L C R, Side: L R, LFE
Sampling rate : 48.0 kHz
Frame rate : 31.250 FPS (1536 SPF)
Compression mode : Lossy
Stream size : 494 MiB (8%)
Title : Original
Language : English
Service kind : Complete Main
Default : No
Forced : No

Text #1
ID : 4
Format : UTF-8
Codec ID : S_TEXT/UTF8
Codec ID/Info : UTF-8 Plain Text
Duration : 1 h 42 min
Bit rate : 76 b/s
Count of elements : 1240
Stream size : 57.6 KiB (0%)
Title : Full
Language : Russian
Default : No
Forced : No

Text #2
ID : 5
Format : UTF-8
Codec ID : S_TEXT/UTF8
Codec ID/Info : UTF-8 Plain Text
Duration : 1 h 42 min
Bit rate : 52 b/s
Count of elements : 1436
Stream size : 39.5 KiB (0%)
Title : SDH
Language : English
Default : No
Forced : No

Menu
00:00:00.000 : en:Studio Logo
00:00:25.000 : en:Scene 2
00:06:34.000 : en:Scene 3
00:14:41.000 : en:Title Sequence
00:14:53.000 : en:Scene 5
00:23:41.000 : en:Scene 6
00:30:34.000 : en:Scene 7
00:35:50.000 : en:Scene 8
00:44:57.000 : en:Scene 9
00:47:56.000 : en:Scene 10
00:50:54.000 : en:Scene 11
00:58:59.000 : en:Scene 12
01:03:25.000 : en:Scene 13
01:11:37.000 : en:Scene 14
01:17:36.000 : en:Scene 15
01:23:55.000 : en:Scene 16
01:29:55.000 : en:Scene 17
01:39:50.000 : en:Scene 18
01:43:13.000 : en:End Credits


Релиз от:

Автор релиза:
КУБКИ

СТАЖ

МЕДАЛИ
Награды:27

Лучший по количеству кубков (4) За отличные раздачи и качество (12) За подробное оформление раздач (1) За отличные комментарии (1) Верный Сид (6)

Аватара пользователя
Korsarka
Уважаемый Релизёр-Корсар
  • Торрент
Для скачивания торрента необходимо зарегистрироваться или войти на трекер.

Вернуться в Зарубежное кино (2011-2018 / HD Video)



Uptime по данным Ping-Admin.Ru - сервиса мониторинга доступности сайтов
Рейтинг@Mail.ru Голосуйте за наш сайт в каталоге Rubo.Ru