logo
Международный русскоязычный
торрент-трекер
Menu
Doublon
Поделиться с друзьями: 
Голосуй за Корсар и получи 500 дублонов
Рейтинг торрент трекеров - UpTracker.ru

Жанна-Дева - Битвы / Jeanne la Pucelle I - Les batailles (1994, драма, биография, история, BDRip 720p)

Сообщение msltel » 14 янв 2020, 15:10

Название: Жанна-Дева – Битвы
Оригинальное название: Jeanne la Pucelle I - Les batailles
Год выпуска: 1994
Страна: Франция
Жанр: драма, биография, история
Продолжительность: 02:40:22
Перевод: профессиональный двухголосый
Режиссер: Жак Риветт
В ролях: Сандрин Боннэр, Марсель Бозонне, Стефан Буше, Пьер Бэйот, Жан-Клод Жей, Бернадетта Жиро, Оливье Крувилье, Андре Маркон, Татьяна Мухина, Квентин Ожье, Жан-Мари Ришье, Батист Руссийон, Матиас Юнг, Мартина Паскаль

О фильме: В первой части исторического повествования 13-летняя Жанна покидает отчий дом в деревеньке Домреми, решаясь на этот шаг после того, как ею был услышан голос святой Екатерины Александрийской и архангела Михаила. Через какое-то время эти же голоса подсказали девушке, что ей необходимо снять осаду с Орлеана, изгнать захватчиков из королевства и возвести на трон Дофина. Но перед этим она приезжает в резиденцию Дофина и рассказывает ему, что она послана небом для свержения английского господства и просит у него войска, чтобы снять осаду с Орлеана. Дофин, поверив её словам, назначает Жанну командующей войск...



Качество: BDRip 720p
Формат: MKV
Видео: MPEG-4 AVC, 5635 Kбит/с, 1280x690, 24 кадр/с
Аудио 1: русский, AC3, 192 kbps, 2 ch, 48 kHz [закадровый двухголосый, Видеофильм по заказу НТВ]
Аудио 2: французский, AC3, 448 kbps, 6 ch, 48 kHz [оригинал]
Субтитры 1: русские
Субтитры 2: английские
Главы/чаптеры

Общее
Уникальный идентификатор : 173353179190424214318800942583218610388 (0x826A9B9DBEDDDF2B9A95B3C6CE32A0D4)
Полное имя : D:\Video\Жанна-Дева - Битвы.1994.BDRip 720p by msltel.mkv
Формат : Matroska
Версия формата : Version 4
Размер файла : 7,03 Гбайт
Продолжительность : 2 ч. 40 м.
Общий поток : 6277 Кбит/сек
Дата кодирования : UTC 2020-01-14 11:14:37
Программа кодирования : mkvmerge v8.2.0 ('World of Adventure') 64bit
Библиотека кодирования : libebml v1.3.1 + libmatroska v1.4.2

Видео
Идентификатор : 1
Формат : AVC
Формат/Информация : Advanced Video Codec
Профиль формата : High@L4.1
Настройки формата : CABAC / 9 Ref Frames
Параметр CABAC формата : Да
Параметр RefFrames формата : 9 кадров
Идентификатор кодека : V_MPEG4/ISO/AVC
Продолжительность : 2 ч. 40 м.
Битрейт : 5635 Кбит/сек
Ширина : 1280 пикселей
Высота : 690 пикселей
Соотношение сторон : 1,85:1
Режим частоты кадров : Постоянный
Частота кадров : 24,000 кадра/сек
Цветовое пространство : YUV
Субдискретизация насыщенности : 4:2:0
Битовая глубина : 8 бит
Тип развёртки : Прогрессивная
Бит/(Пиксели*Кадры) : 0.266
Размер потока : 6,31 Гбайт (90%)
Библиотека кодирования : x264 core 157 r2935 545de2f
Настройки программы : cabac=1 / ref=9 / deblock=1:-2:-2 / analyse=0x3:0x113 / me=umh / subme=11 / psy=1 / psy_rd=1.00:0.15 / mixed_ref=1 / me_range=32 / chroma_me=1 / trellis=2 / 8x8dct=1 / cqm=0 / deadzone=21,11 / fast_pskip=0 / chroma_qp_offset=-3 / threads=6 / lookahead_threads=1 / sliced_threads=0 / nr=0 / decimate=1 / interlaced=0 / bluray_compat=0 / constrained_intra=0 / bframes=14 / b_pyramid=2 / b_adapt=2 / b_bias=0 / direct=1 / weightb=1 / open_gop=0 / weightp=2 / keyint=230 / keyint_min=23 / scenecut=40 / intra_refresh=0 / rc_lookahead=40 / rc=crf / mbtree=0 / crf=18.5 / qcomp=0.60 / qpmin=0 / qpmax=69 / qpstep=4 / vbv_maxrate=50000 / vbv_bufsize=62500 / crf_max=0.0 / nal_hrd=none / filler=0 / ip_ratio=1.40 / pb_ratio=1.30 / aq=1:1.00
Язык : French
Default : Да
Forced : Нет

Аудио #1
Идентификатор : 2
Формат : AC-3
Формат/Информация : Audio Coding 3
Коммерческое название : Dolby Digital
Идентификатор кодека : A_AC3
Продолжительность : 2 ч. 40 м.
Вид битрейта : Постоянный
Битрейт : 192 Кбит/сек
Каналы : 2 канала
ChannelLayout : L R
Частота : 48,0 КГц
Частота кадров : 31,250 кадров/сек (1536 SPF)
Метод сжатия : С потерями
Размер потока : 220 Мбайт (3%)
Заголовок : DVO Видеофильм по заказу НТВ
Язык : Russian
ServiceKind/String : Complete Main
Default : Да
Forced : Нет

Аудио #2
Идентификатор : 3
Формат : AC-3
Формат/Информация : Audio Coding 3
Коммерческое название : Dolby Digital
Идентификатор кодека : A_AC3
Продолжительность : 2 ч. 40 м.
Вид битрейта : Постоянный
Битрейт : 448 Кбит/сек
Каналы : 6 каналов
ChannelLayout : L R C LFE Ls Rs
Частота : 48,0 КГц
Частота кадров : 31,250 кадров/сек (1536 SPF)
Метод сжатия : С потерями
Размер потока : 514 Мбайт (7%)
Заголовок : original
Язык : French
ServiceKind/String : Complete Main
Default : Нет
Forced : Нет

Текст #1
Идентификатор : 4
Формат : UTF-8
Идентификатор кодека : S_TEXT/UTF8
Идентификатор кодека/Информация : UTF-8 Plain Text
Продолжительность : 2 ч. 35 м.
Битрейт : 73 бит/сек
ElementCount : 1341
Размер потока : 83,7 Кбайт (0%)
Заголовок : русские
Язык : Russian
Default : Нет
Forced : Нет

Текст #2
Идентификатор : 5
Формат : UTF-8
Идентификатор кодека : S_TEXT/UTF8
Идентификатор кодека/Информация : UTF-8 Plain Text
Продолжительность : 2 ч. 32 м.
Битрейт : 38 бит/сек
ElementCount : 1498
Размер потока : 43,3 Кбайт (0%)
Заголовок : английские
Язык : English
Default : Нет
Forced : Нет

Меню
00:00:00.000 : en:Chapter 1
00:07:40.875 : en:Chapter 2
00:21:30.625 : en:Chapter 3
00:32:14.625 : en:Chapter 4
00:38:37.167 : en:Chapter 5
00:51:53.583 : en:Chapter 6
01:00:13.000 : en:Chapter 7
01:12:40.750 : en:Chapter 8
01:21:54.625 : en:Chapter 9
01:31:21.250 : en:Chapter 10
01:41:35.083 : en:Chapter 11
01:50:20.792 : en:Chapter 12
02:00:20.542 : en:Chapter 13
02:09:46.833 : en:Chapter 14
02:19:08.000 : en:Chapter 15
02:29:03.500 : en:Chapter 16



КУБКИ

СТАЖ

МЕДАЛИ
Награды:31

За отличные раздачи и качество (16) Почётный форумчанин (1) Верный Сид (11)

Аватара пользователя
Russia
msltel
Уважаемый Релизёр-Корсар
  • Торрент
Для скачивания торрента необходимо зарегистрироваться или войти на трекер.

Сообщение kwazar312 » 14 янв 2020, 18:41

В первой части исторического повествования 13-летняя Жанна покидает отчий дом в деревеньке Домреми. Она решается на этот шаг после того, как ею был услышан голос святой Екатерины Александрийской и архангела Михаила. Через какое-то время эти же голоса подсказали девушке, что ей необходимо снять осаду с Орлеана, изгнать захватчиков из королевства и возвести на трон Дофина. Но, перед этим она приезжает в резиденцию Дофина и рассказывает ему, что она послана небом для свержения английского господства и просит у него войска, что бы снять осаду с Орлеана. Дофин, поверив ее словам, и назначает ее командующей войск…
Уважаемый msltel,спасибо за раздачу этого фильма.
:hi: :hi: :good: :respect:
КУБКИ

СТАЖ

МЕДАЛИ
Награды:131

За активную помощь проекту (13) Лучший по количеству кубков (40) За отличные раздачи и качество (3) За отличные комментарии (22) Почётный форумчанин (1) Верный Сид (46) За участие в конкурсах/играх (6)

Аватара пользователя
kwazar312
Заслуженный Корсар-Вип


Вернуться в Зарубежное кино (1991-2000 / HD Video)



Uptime по данным Ping-Admin.Ru - сервиса мониторинга доступности сайтов
Рейтинг@Mail.ru