logo
Международный русскоязычный
торрент-трекер
Menu
Doublon
Поделиться с друзьями: 
Голосуй за Корсар и получи 500 дублонов
Рейтинг торрент трекеров - UpTracker.ru

Jam & Spoon (1993-2015, Trance, Techno, EuroHouse, FLAC)

Сообщение Korsar » 08 янв 2017, 16:38

Jam & Spoon (7 Albums & 20 Singles)

Жанр: Trance, Techno, EuroHouse
Год выпуска диска: 1993 - 2015
Производитель диска: Germany / UK
Label: JAM!, Epic, Polydor, Island Records, Universal, Modul, Allstar Music, NuLife Recordings, Epic Deutschland (Sony Music)
Аудио кодек: FLAC (*.flac)
Тип рипа: image+.cue / tracks [web releases]
Битрейт аудио: Lossless
Продолжительность: 21:33:22
Источник (релизер): aylaayla
Наличие сканов в содержимом раздачи: да (600dpi)
#7#777Немецкий электронный проект Jam & Spoon состоялся в 1992 году, когда два талантливых музыканта Jam El Mar (Rolf Ellmer) и Mark Spoon (Markus Loffel) решили объединить свои усилия в написании музыки. К тому времени у
каждого из них был достаточно солидный опыт в шоу-бизнесе. Jam El Mar уже прославился как ремиксер и со-продюсер транс проекта Dance 2 Trance, а Mark Spoon успел поработать с Turbo B и Moses P. В 1993 году вышел самый известный их альбом «Tripomatic Fairytales 2001», позже многократно переиздававшейся. Они написали большое кол-во клубных хитов, таких как "Stella", "Right In The Night", "Find Me" и "Be Angeled". Так же Mark Spoon участвовал в таких проектах, как Storm, Tokyo Ghetto Pussy и Big Room.
Музыкальные композиции стирают грань между электронной и рок музыкой, впитывая от них самое лучшее и образуя нечто среднее и очень интересное по звучанию.
2006 год помимо радостных событий и отличных релизов, как это не печально, принес и плохие новости. 9 января в результате сердечного приступа в своей квартире во Франкфурте (Германия) умер Marcus Loffel (aka Mark Spoon), известнейший музыкант, ½ проекта Jam & Spoon. Ему был всего 41 год.
~ Albums ~
#777По discogs: http://www.discogs.com/Jam-Spoon-Tripomatic-Fairytales-2001/release/1251415

CD1 - Tripomatic Fairytales 2001
Продолжительность: 01:13:54

Трэклист:
01. Heart Of Africa (6:49)
02. Odyssey To Anyoona (9:59)
03. Two Spys In The House Of Love (0:32)
04. Stella (6:19)
05. Neurotrance Adventure (5:42)
06. Operating Spaceship Earth (1:28)
07. Zen Flash Zen Bones (6:10)
08. Who Opened The Door To Nowhere (2:44)
09. Right In The Night (Fall In Love With Music) (Single Version) (6:05)
10. Muffeled Drums (0:40)
11. Path Of Harmony (7:02)
12. Paradise Garage (6:30)
13. Earth Spirit (6:28)
14. Stellas Cry (7:25)

CD2 - Excerpts From Tripomatic Fairytales 2002 (Mixed)
Продолжительность: 00:13:10

Трэклист:
01. Secret Kind Of Love (4:52)
02. LSD Nikon (0:36)
03. I Saw The Future (3:38)
04. The Future Is In Small Hands (2:18)
05. N.A.S.A. Nocturnal Audio Sensory Awakening (1:44)
Код: Выделить всё
Exact Audio Copy V1.0 beta 3 from 29. August 2011

EAC extraction logfile from 21. September 2012, 17:12

Jam & Spoon / Tripomatic Fairytales 2001

Used drive  : SONY    DVD RW AD-7260S   Adapter: 0  ID: 0

Read mode               : Secure
Utilize accurate stream : Yes
Defeat audio cache      : Yes
Make use of C2 pointers : No

Read offset correction                      : 48
Overread into Lead-In and Lead-Out          : No
Fill up missing offset samples with silence : Yes
Delete leading and trailing silent blocks   : No
Null samples used in CRC calculations       : Yes
Used interface                              : Native Win32 interface for Win NT & 2000

Used output format : Internal WAV Routines
Sample format      : 44.100 Hz; 16 Bit; Stereo

TOC of the extracted CD

     Track |   Start  |  Length  | Start sector | End sector
    ---------------------------------------------------------
        1  |  0:00.00 |  6:49.55 |         0    |    30729
        2  |  6:49.55 |  9:58.70 |     30730    |    75649
        3  | 16:48.50 |  0:31.30 |     75650    |    78004
        4  | 17:20.05 |  6:18.70 |     78005    |   106424
        5  | 23:39.00 |  5:41.62 |    106425    |   132061
        6  | 29:20.62 |  1:28.30 |    132062    |   138691
        7  | 30:49.17 |  6:09.60 |    138692    |   166426
        8  | 36:59.02 |  2:44.73 |    166427    |   178799
        9  | 39:44.00 |  6:04.30 |    178800    |   206129
       10  | 45:48.30 |  0:40.05 |    206130    |   209134
       11  | 46:28.35 |  7:01.42 |    209135    |   240751
       12  | 53:30.02 |  6:30.18 |    240752    |   270019
       13  | 60:00.20 |  6:28.15 |    270020    |   299134
       14  | 66:28.35 |  7:25.40 |    299135    |   332549

Range status and errors

Selected range

     Filename H:\Torrent Uploads\Jam & Spoon\Albums\1993 - Tripomatic Fairytales 2001 (incl. Free Maxi-Cd)\CD1\Jam & Spoon - Tripomatic Fairytales 2001.wav

     Peak level 97.9 %
     Extraction speed 4.6 X
     Range quality 100.0 %
     Test CRC 74C48A14
     Copy CRC 74C48A14
     Copy OK

No errors occurred

AccurateRip summary

Track  1  accurately ripped (confidence 5)  [DE947CC6]  (AR v2)
Track  2  accurately ripped (confidence 5)  [77B3C44E]  (AR v2)
Track  3  accurately ripped (confidence 5)  [3E38AD99]  (AR v2)
Track  4  accurately ripped (confidence 5)  [8E7341C3]  (AR v2)
Track  5  accurately ripped (confidence 5)  [D4432883]  (AR v2)
Track  6  accurately ripped (confidence 5)  [582E2FFB]  (AR v2)
Track  7  accurately ripped (confidence 5)  [A8D86C11]  (AR v2)
Track  8  accurately ripped (confidence 5)  [D1E8D6E5]  (AR v2)
Track  9  accurately ripped (confidence 5)  [57BCB200]  (AR v2)
Track 10  accurately ripped (confidence 5)  [8469C84C]  (AR v2)
Track 11  accurately ripped (confidence 5)  [6F139B34]  (AR v2)
Track 12  accurately ripped (confidence 5)  [F9B7A70E]  (AR v2)
Track 13  accurately ripped (confidence 5)  [22AB0B4F]  (AR v2)
Track 14  accurately ripped (confidence 5)  [1CF32862]  (AR v2)

All tracks accurately ripped

End of status report

==== Log checksum 43AACC363456F5F50478FC1B011E2C402A9DEB2C752158204B0823DA55AFEE24 ====
Код: Выделить всё
Exact Audio Copy V1.0 beta 3 from 29. August 2011

EAC extraction logfile from 21. September 2012, 17:26

Jam & Spoon / Excerpts from "Tripomatic Fairytales 2002"

Used drive  : SONY    DVD RW AD-7260S   Adapter: 0  ID: 0

Read mode               : Secure
Utilize accurate stream : Yes
Defeat audio cache      : Yes
Make use of C2 pointers : No

Read offset correction                      : 48
Overread into Lead-In and Lead-Out          : No
Fill up missing offset samples with silence : Yes
Delete leading and trailing silent blocks   : No
Null samples used in CRC calculations       : Yes
Used interface                              : Native Win32 interface for Win NT & 2000

Used output format : Internal WAV Routines
Sample format      : 44.100 Hz; 16 Bit; Stereo

TOC of the extracted CD

     Track |   Start  |  Length  | Start sector | End sector
    ---------------------------------------------------------
        1  |  0:00.00 |  4:52.15 |         0    |    21914
        2  |  4:52.15 |  0:36.40 |     21915    |    24654
        3  |  5:28.55 |  3:38.17 |     24655    |    41021
        4  |  9:06.72 |  2:18.68 |     41022    |    51439
        5  | 11:25.65 |  1:44.10 |     51440    |    59249

Range status and errors

Selected range

     Filename H:\Torrent Uploads\Jam & Spoon\Albums\1993 - Tripomatic Fairytales 2001 (incl. Free Maxi-Cd)\CD2\Jam & Spoon - Excerpts from ''Tripomatic Fairytales 2002''.wav

     Peak level 100.0 %
     Extraction speed 2.9 X
     Range quality 100.0 %
     Test CRC D281B31D
     Copy CRC D281B31D
     Copy OK

No errors occurred

AccurateRip summary

Track  1  accurately ripped (confidence 2)  [80BFFDE9]  (AR v2)
Track  2  accurately ripped (confidence 2)  [4D7F98CD]  (AR v2)
Track  3  accurately ripped (confidence 2)  [94ABE22B]  (AR v2)
Track  4  accurately ripped (confidence 2)  [336E4BAB]  (AR v2)
Track  5  accurately ripped (confidence 2)  [2F9AC5D4]  (AR v2)

All tracks accurately ripped

End of status report

==== Log checksum 6CC777E518566DE60BAA24C8D07C6B1EB12FDEC1BDF27D9DAAF7ED8402EF1250 ====
#777По discogs: http://www.discogs.com/Jam-Spoon-Tripomatic-Fairytales-2002/release/200905
Продолжительность: 01:13:30

Трэклист:
01. Hermaphrodite (2:10)
02. N.A.S.A. Nocturnal Audio Sensory Awakening (11:15)
03. LSD Nikon (2:34)
04. The Future Is In Small Hands (5:25)
05. Salinas Afternoon (4:03)
06. V. Angel. Is Calling (10:11)
07. Words And Dana (1:00)
08. Ancient Dream (1:00)
09. I Saw The Future (11:32)
10. Castaneda Future Illuminations (2:04)
11. Secret Kind Of Love (8:02)
12. World Of X-T-C (5:52)
Код: Выделить всё
Exact Audio Copy V1.0 beta 3 from 29. August 2011

EAC extraction logfile from 21. September 2012, 16:27

Jam & Spoon / Tripomatic Fairytales 2002

Used drive  : SONY    DVD RW AD-7260S   Adapter: 0  ID: 0

Read mode               : Secure
Utilize accurate stream : Yes
Defeat audio cache      : Yes
Make use of C2 pointers : No

Read offset correction                      : 48
Overread into Lead-In and Lead-Out          : No
Fill up missing offset samples with silence : Yes
Delete leading and trailing silent blocks   : No
Null samples used in CRC calculations       : Yes
Used interface                              : Native Win32 interface for Win NT & 2000

Used output format : Internal WAV Routines
Sample format      : 44.100 Hz; 16 Bit; Stereo

TOC of the extracted CD

     Track |   Start  |  Length  | Start sector | End sector
    ---------------------------------------------------------
        1  |  0:00.00 |  2:10.70 |         0    |     9819
        2  |  2:10.70 | 11:54.70 |      9820    |    63439
        3  | 14:05.65 |  2:33.72 |     63440    |    74986
        4  | 16:39.62 |  5:24.40 |     74987    |    99326
        5  | 22:04.27 |  4:02.50 |     99327    |   117526
        6  | 26:07.02 | 10:11.30 |    117527    |   163381
        7  | 36:18.32 |  1:00.30 |    163382    |   167911
        8  | 37:18.62 |  8:41.10 |    167912    |   206996
        9  | 45:59.72 | 11:31.38 |    206997    |   258859
       10  | 57:31.35 |  2:04.30 |    258860    |   268189
       11  | 59:35.65 |  8:01.67 |    268190    |   304331
       12  | 67:37.57 |  5:52.73 |    304332    |   330804

Range status and errors

Selected range

     Filename H:\Torrent Uploads\Jam & Spoon\Albums\1993 - Tripomatic Fairytales 2002\Jam & Spoon - Tripomatic Fairytales 2002.wav

     Peak level 100.0 %
     Extraction speed 4.1 X
     Range quality 99.9 %
     Test CRC D2C6D900
     Copy CRC D2C6D900
     Copy finished

No errors occurred

AccurateRip summary

Track  1  accurately ripped (confidence 6)  [DB115F7B]  (AR v2)
Track  2  accurately ripped (confidence 5)  [B9862DC4]  (AR v2)
Track  3  accurately ripped (confidence 6)  [7CD298CF]  (AR v2)
Track  4  accurately ripped (confidence 6)  [DBB39A12]  (AR v2)
Track  5  accurately ripped (confidence 6)  [9ECCB154]  (AR v2)
Track  6  accurately ripped (confidence 5)  [5A8A66A5]  (AR v2)
Track  7  accurately ripped (confidence 5)  [4417B112]  (AR v2)
Track  8  accurately ripped (confidence 5)  [21519A64]  (AR v2)
Track  9  accurately ripped (confidence 5)  [06984F76]  (AR v2)
Track 10  accurately ripped (confidence 5)  [5BFFCA54]  (AR v2)
Track 11  accurately ripped (confidence 5)  [1B96D71C]  (AR v2)
Track 12  accurately ripped (confidence 5)  [2E82F334]  (AR v2)

All tracks accurately ripped

End of status report

==== Log checksum 61664DE21C0268F920649D488CE089053E57B4200BF23B0CAC9F61827FABFC25 ====
#777По discogs: http://www.discogs.com/Jam-Spoon-Tripomatic-Fairytales-2001/release/108990
Продолжительность: 01:14:06

Трэклист:
01. Heart Of Africa (6:49)
02. Odyssey To Anyoona (9:59)
03. Two Spys In The House Of Love (0:32)
04. Stella (6:19)
05. Neurotrance Adventure (5:42)
06. Angel (Ladadi O-Heyo) (Airplay Edit) (3:46)
07. Who Opened The Door To Nowhere (2:44)
08. Right In The Night (Fall In Love With Music) (Single Version) (6:05)
09. Muffeled Drums (0:40)
10. Path Of Harmony (7:02)
11. Paradise Garage (6:30)
12. Earth Spirit (6:28)
13. Stellas Cry (7:25)
14. Find Me (Odyssey To Anyoona) (Radio Mix) (4:01)
Код: Выделить всё
Exact Audio Copy V1.0 beta 3 from 29. August 2011

EAC extraction logfile from 3. June 2014, 18:53

Jam & Spoon / Tripomatic Fairytales 2001 (Special Edition)

Used drive  : SONY    DVD RW AD-7260S   Adapter: 0  ID: 0

Read mode               : Secure
Utilize accurate stream : Yes
Defeat audio cache      : Yes
Make use of C2 pointers : No

Read offset correction                      : 48
Overread into Lead-In and Lead-Out          : No
Fill up missing offset samples with silence : Yes
Delete leading and trailing silent blocks   : No
Null samples used in CRC calculations       : Yes
Used interface                              : Installed external ASPI interface

Used output format : Internal WAV Routines
Sample format      : 44.100 Hz; 16 Bit; Stereo

TOC of the extracted CD

     Track |   Start  |  Length  | Start sector | End sector
    ---------------------------------------------------------
        1  |  0:00.00 |  6:49.60 |         0    |    30734
        2  |  6:49.60 |  9:58.60 |     30735    |    75644
        3  | 16:48.45 |  0:31.30 |     75645    |    77999
        4  | 17:20.00 |  6:18.72 |     78000    |   106421
        5  | 23:38.72 |  5:44.40 |    106422    |   132261
        6  | 29:23.37 |  3:46.03 |    132262    |   149214
        7  | 33:09.40 |  2:44.60 |    149215    |   161574
        8  | 35:54.25 |  6:04.15 |    161575    |   188889
        9  | 41:58.40 |  0:40.07 |    188890    |   191896
       10  | 42:38.47 |  7:01.33 |    191897    |   223504
       11  | 49:40.05 |  6:30.22 |    223505    |   252776
       12  | 56:10.27 |  6:28.05 |    252777    |   281881
       13  | 62:38.32 |  7:26.60 |    281882    |   315391
       14  | 70:05.17 |  4:01.30 |    315392    |   333496

Range status and errors

Selected range

     Filename V:\Torrents To Upload\RuTracker\Jam & Spoon\Albums\1995 - Tripomatic Fairytales 2001 (Special Edition)\Jam & Spoon - Tripomatic Fairytales 2001 (Special Edition).wav

     Peak level 99.5 %
     Extraction speed 4.6 X
     Range quality 100.0 %
     Test CRC B6ED701E
     Copy CRC B6ED701E
     Copy OK

No errors occurred

AccurateRip summary

Track  1  accurately ripped (confidence 12)  [693CD10E]  (AR v2)
Track  2  accurately ripped (confidence 12)  [15AF7926]  (AR v2)
Track  3  accurately ripped (confidence 12)  [791F753D]  (AR v2)
Track  4  accurately ripped (confidence 12)  [585B7AC9]  (AR v2)
Track  5  accurately ripped (confidence 12)  [1F2B44CA]  (AR v2)
Track  6  accurately ripped (confidence 13)  [9472C636]  (AR v2)
Track  7  accurately ripped (confidence 12)  [44DB46BD]  (AR v2)
Track  8  accurately ripped (confidence 12)  [1DE1BCB9]  (AR v2)
Track  9  accurately ripped (confidence 12)  [CB79EDB6]  (AR v2)
Track 10  accurately ripped (confidence 12)  [7934F3F1]  (AR v2)
Track 11  accurately ripped (confidence 12)  [B5E47E2D]  (AR v2)
Track 12  accurately ripped (confidence 12)  [8F894257]  (AR v2)
Track 13  accurately ripped (confidence 12)  [C0763C16]  (AR v2)
Track 14  accurately ripped (confidence 11)  [6158E2E1]  (AR v2)

All tracks accurately ripped

End of status report

==== Log checksum 8C3038657091B00A0E48D1541BF831EF16A0F15CF1EB39F4E9E0F3412128AB0D ====
#777По discogs: http://www.discogs.com/Jam-Spoon-Kaleidoscope/release/208233
Продолжительность: 01:06:56

Трэклист:
01. Garden Of Eden (5:30)
02. Kaleidoscope Skies (3:27)
03. Guiding Light (4:33)
04. Warm Dead Dog (5:24)
05. Flame (5:24)
06. You Got To Get In (2:03)
07. To Get Out (6:29)
08. Kiss Away (5:30)
09. Usual Suspect (7:18)
10. El Baile (5:04)
11. Mark Runs The Voodoo Down (2:43)
12. Suspicious Minds (4:03)
13. I Pull My Gun Once (5:04)
14. I Pull My Gun Twice (4:18)
Код: Выделить всё
Exact Audio Copy V1.0 beta 3 from 29. August 2011

EAC extraction logfile from 21. September 2012, 14:19

Jam & Spoon / Kaleidoscope (Germany Promo Album)

Used drive  : SONY    DVD RW AD-7260S   Adapter: 0  ID: 0

Read mode               : Secure
Utilize accurate stream : Yes
Defeat audio cache      : Yes
Make use of C2 pointers : No

Read offset correction                      : 48
Overread into Lead-In and Lead-Out          : No
Fill up missing offset samples with silence : Yes
Delete leading and trailing silent blocks   : No
Null samples used in CRC calculations       : Yes
Used interface                              : Native Win32 interface for Win NT & 2000

Used output format : Internal WAV Routines
Sample format      : 44.100 Hz; 16 Bit; Stereo

TOC of the extracted CD

     Track |   Start  |  Length  | Start sector | End sector
    ---------------------------------------------------------
        1  |  0:00.00 |  5:30.42 |         0    |    24791
        2  |  5:30.42 |  3:27.03 |     24792    |    40319
        3  |  8:57.45 |  4:33.55 |     40320    |    60849
        4  | 13:31.25 |  5:24.07 |     60850    |    85156
        5  | 18:55.32 |  5:24.70 |     85157    |   109526
        6  | 24:20.27 |  2:03.03 |    109527    |   118754
        7  | 26:23.30 |  6:29.65 |    118755    |   147994
        8  | 32:53.20 |  5:30.65 |    147995    |   172809
        9  | 38:24.10 |  7:18.65 |    172810    |   205724
       10  | 45:43.00 |  5:04.12 |    205725    |   228536
       11  | 50:47.12 |  2:43.00 |    228537    |   240761
       12  | 53:30.12 |  4:03.38 |    240762    |   259024
       13  | 57:33.50 |  5:04.02 |    259025    |   281826
       14  | 62:37.52 |  4:18.30 |    281827    |   301206

Range status and errors

Selected range

     Filename H:\Torrent Uploads\Jam & Spoon\Albums\1997 - Kaleidoscope (14 Tracks Germany Promo Album)\Jam & Spoon - Kaleidoscope (Germany Promo Album).wav

     Peak level 98.4 %
     Extraction speed 4.3 X
     Range quality 100.0 %
     Test CRC 0D3B19D9
     Copy CRC 0D3B19D9
     Copy OK

No errors occurred

AccurateRip summary

Track  1  accurately ripped (confidence 1)  [91CC3271]  (AR v1)
Track  2  accurately ripped (confidence 1)  [E0CC1698]  (AR v1)
Track  3  accurately ripped (confidence 1)  [FDB2BFE9]  (AR v1)
Track  4  accurately ripped (confidence 1)  [C8657B46]  (AR v1)
Track  5  accurately ripped (confidence 1)  [594FB77D]  (AR v1)
Track  6  accurately ripped (confidence 1)  [75215E13]  (AR v1)
Track  7  accurately ripped (confidence 1)  [3A35736D]  (AR v1)
Track  8  accurately ripped (confidence 1)  [4BEE4605]  (AR v1)
Track  9  accurately ripped (confidence 1)  [CE386DBF]  (AR v1)
Track 10  accurately ripped (confidence 1)  [38D93FEF]  (AR v1)
Track 11  accurately ripped (confidence 1)  [ABA6C45E]  (AR v1)
Track 12  accurately ripped (confidence 1)  [5B50EC38]  (AR v1)
Track 13  accurately ripped (confidence 1)  [F75E413D]  (AR v1)
Track 14  cannot be verified as accurate (confidence 1)  [123AD8FD], AccurateRip returned [516FD955]  (AR v2)

13 track(s) accurately ripped
 1 track(s) could not be verified as accurate

Some tracks could not be verified as accurate

End of status report

==== Log checksum 7950B3977BF265A94810E4E0B2F0CE9ECB4947177753BE97EE9BAC1260F61894 ====
#777По discogs: http://www.discogs.com/Jam-Spoon-Kaleidoscope/release/29579
Продолжительность: 01:17:05

Трэклист:
01. Garden Of Eden (5:31)
02. Kaleidoscope Skies (3:27)
03. Guiding Light (4:33)
04. Warm Dead Dog (5:24)
05. Flame (5:24)
06. You Got To Get In (2:03)
07. To Get Out (6:30)
08. Kiss Away (5:27)
09. Usual Suspect (7:32)
10. El Baile (5:03)
11. So Called Techno Track (6:16)
12. Suspicious Minds (4:01)
13. Mark Runs The Voodoo Down (2:43)
14. Don't Call It Love (3:41)
15. I Pull My Gun Once (5:04)
16. I Pull My Gun Twice (4:18)
Код: Выделить всё
Exact Audio Copy V1.0 beta 3 from 29. August 2011

EAC extraction logfile from 21. September 2012, 15:29

Jam & Spoon / Kaleidoscope

Used drive  : SONY    DVD RW AD-7260S   Adapter: 0  ID: 0

Read mode               : Secure
Utilize accurate stream : Yes
Defeat audio cache      : Yes
Make use of C2 pointers : No

Read offset correction                      : 48
Overread into Lead-In and Lead-Out          : No
Fill up missing offset samples with silence : Yes
Delete leading and trailing silent blocks   : No
Null samples used in CRC calculations       : Yes
Used interface                              : Native Win32 interface for Win NT & 2000

Used output format : Internal WAV Routines
Sample format      : 44.100 Hz; 16 Bit; Stereo

TOC of the extracted CD

     Track |   Start  |  Length  | Start sector | End sector
    ---------------------------------------------------------
        1  |  0:00.00 |  5:31.57 |         0    |    24881
        2  |  5:31.57 |  3:27.23 |     24882    |    40429
        3  |  8:59.05 |  4:33.25 |     40430    |    60929
        4  | 13:32.30 |  5:24.32 |     60930    |    85261
        5  | 18:56.62 |  5:24.43 |     85262    |   109604
        6  | 24:21.30 |  2:03.05 |    109605    |   118834
        7  | 26:24.35 |  6:30.37 |    118835    |   148121
        8  | 32:54.72 |  5:27.10 |    148122    |   172656
        9  | 38:22.07 |  7:32.40 |    172657    |   206596
       10  | 45:54.47 |  5:03.33 |    206597    |   229354
       11  | 50:58.05 |  6:16.37 |    229355    |   257591
       12  | 57:14.42 |  4:01.35 |    257592    |   275701
       13  | 61:16.02 |  2:43.65 |    275702    |   287991
       14  | 63:59.67 |  3:41.20 |    287992    |   304586
       15  | 67:41.12 |  5:04.23 |    304587    |   327409
       16  | 72:45.35 |  4:20.17 |    327410    |   346926

Range status and errors

Selected range

     Filename H:\Torrent Uploads\Jam & Spoon\Albums\1997 - Kaleidoscope (16 Tracks Album)\Jam & Spoon - Kaleidoscope.wav

     Peak level 100.0 %
     Extraction speed 4.6 X
     Range quality 100.0 %
     Test CRC EEADF402
     Copy CRC EEADF402
     Copy OK

No errors occurred

AccurateRip summary

Track  1  accurately ripped (confidence 2)  [852D0485]  (AR v2)
Track  2  accurately ripped (confidence 2)  [A4A66446]  (AR v2)
Track  3  accurately ripped (confidence 2)  [B82F14D5]  (AR v2)
Track  4  accurately ripped (confidence 2)  [14053B46]  (AR v2)
Track  5  accurately ripped (confidence 2)  [E4680A77]  (AR v2)
Track  6  accurately ripped (confidence 2)  [320FF7A2]  (AR v2)
Track  7  accurately ripped (confidence 2)  [74240F09]  (AR v2)
Track  8  accurately ripped (confidence 2)  [976B0F1A]  (AR v2)
Track  9  accurately ripped (confidence 2)  [526C0E91]  (AR v2)
Track 10  accurately ripped (confidence 2)  [B4786586]  (AR v2)
Track 11  accurately ripped (confidence 2)  [32D12060]  (AR v2)
Track 12  accurately ripped (confidence 2)  [5267F549]  (AR v2)
Track 13  accurately ripped (confidence 2)  [60327BB4]  (AR v2)
Track 14  accurately ripped (confidence 2)  [41E8B522]  (AR v2)
Track 15  accurately ripped (confidence 2)  [E55ACE77]  (AR v2)
Track 16  accurately ripped (confidence 2)  [278971F9]  (AR v2)

All tracks accurately ripped

End of status report

==== Log checksum 02D10A8DFB3676963C8B3EC9AC0D512CFEC3C05E887C33AF87C23856147BC217 ====
#777По discogs: http://www.discogs.com/Jam-Spoon-Tripomatic-Fairytales-3003/release/346331
Продолжительность: 01:18:29

Трэклист:
01. Moment Gone (5:52)
02. Cynical Heart (3:46)
03. Set Me Free (3:53)
04. Mirror Love (6:19)
05. Bianche Le Mie Mani (5:25)
06. None Of This (3:42)
07. Vata (8:29)
08. So Sweet (4:31)
09. Butterfly Sign (3:12)
10. Something To Remind Me (6:17)
11. Mary Jane (5:10)
12. Why (5:55)
13. Blue Moon Tidal (6:32)
14. Junoon (5:43)
15. Be.Angeled (3:37)
Код: Выделить всё
Exact Audio Copy V1.0 beta 3 from 29. August 2011

EAC extraction logfile from 21. September 2012, 14:55

Jam & Spoon / Tripomatic Fairytales 3003 (15 Track Promo Advance CD)

Used drive  : SONY    DVD RW AD-7260S   Adapter: 0  ID: 0

Read mode               : Secure
Utilize accurate stream : Yes
Defeat audio cache      : Yes
Make use of C2 pointers : No

Read offset correction                      : 48
Overread into Lead-In and Lead-Out          : No
Fill up missing offset samples with silence : Yes
Delete leading and trailing silent blocks   : No
Null samples used in CRC calculations       : Yes
Used interface                              : Native Win32 interface for Win NT & 2000

Used output format : Internal WAV Routines
Sample format      : 44.100 Hz; 16 Bit; Stereo

TOC of the extracted CD

     Track |   Start  |  Length  | Start sector | End sector
    ---------------------------------------------------------
        1  |  0:00.00 |  5:52.28 |         0    |    26427
        2  |  5:52.28 |  3:46.27 |     26428    |    43404
        3  |  9:38.55 |  3:53.03 |     43405    |    60882
        4  | 13:31.58 |  6:19.16 |     60883    |    89323
        5  | 19:50.74 |  5:25.49 |     89324    |   113747
        6  | 25:16.48 |  3:42.66 |    113748    |   130463
        7  | 28:59.39 |  8:29.46 |    130464    |   168684
        8  | 37:29.10 |  4:31.05 |    168685    |   189014
        9  | 42:00.15 |  3:12.52 |    189015    |   203466
       10  | 45:12.67 |  6:17.17 |    203467    |   231758
       11  | 51:30.09 |  5:10.38 |    231759    |   255046
       12  | 56:40.47 |  5:55.14 |    255047    |   281685
       13  | 62:35.61 |  6:32.17 |    281686    |   311102
       14  | 69:08.03 |  5:43.57 |    311103    |   336884
       15  | 74:51.60 |  3:37.58 |    336885    |   353217

Range status and errors

Selected range

     Filename H:\Torrent Uploads\Jam & Spoon\Albums\2003 - Tripomatic Fairytales 3003 (15 Track Promo Advance CD)\Jam & Spoon - Tripomatic Fairytales 3003 (15 Track Promo Advance CD).wav

     Peak level 99.8 %
     Extraction speed 4.6 X
     Range quality 100.0 %
     Test CRC 002AB0DC
     Copy CRC 002AB0DC
     Copy OK

No errors occurred

AccurateRip summary

Track  1  not present in database
Track  2  not present in database
Track  3  not present in database
Track  4  not present in database
Track  5  not present in database
Track  6  not present in database
Track  7  not present in database
Track  8  not present in database
Track  9  not present in database
Track 10  not present in database
Track 11  not present in database
Track 12  not present in database
Track 13  not present in database
Track 14  not present in database
Track 15  not present in database

None of the tracks are present in the AccurateRip database

End of status report

==== Log checksum 8E2C13C347BDCC27481C905437AFD852CBB5D15D5E4BC77D6D4C5D6805C1B6DB ====
#777Продолжительность: 03:14:35
По discogs: N/A
01. Find Me (Jam El Mar 2015 Version) (3:53)
02. Right In The Night (David May & Amfree Radio Edit without Rap) (3:15)
03. Be.Angeled (Jam & Amfree Rework Radio Edit) feat. Rea Garvey (3:48)
04. Stella (Original Mix) (6:20)
05. I pull my gun once (5:04)
06. I pull my gun twice (4:20)
07. Angel (Ladadi O-Heyo) (Airplay Edit II) feat. Plavka (4:20)
08. El Baile (5:03)
09. Right In The Night (Fall In Love With Music) (Original Mix) feat. Plavka (6:04)
10. Odyssey To Anyoona (9:59)
11. Follow Me! (12:29)
01. Set Me Free (Empty Rooms) [Video Version] feat. Rea Garvey (3:53)
02. Cynical Heart feat. Jim Kerr (3:45)
03. Warm Dead Dog (Kaleidoscope Mix) (5:26)
04. Bianche Le Mie Mani feat. Tricky (5:26)
05. None Of This feat. Xavier Naidoo (3:43)
06. Butterfly Sign feat. Plavka (3:13)
07. World of X.T.C. (5:54)
08. Kaleidoscope Skies (Jam & Spoon Remix) feat. Plavka (4:38)
09. Right In The Night (Fall In Love With Music) (Flamenc-O-Matic Fairytale Radio) (3:39)
10. Don’t Call It Love feat. Plavka (Radio Mix) (3:44)
11. Find Me (Odyssey To Anyoona) (Vocal Radio Mix) (4:03)
12. Be.Angeled (Radio Mix) feat. Rea Garvey (3:38)
13. Stella (Barracuda Mix by Moby) (6:35)
14. N.A.S.A. Nocturnal Audio Sensory Awakening (11.55)
01. Right In The Night (David May & Amfree Radio Edit feat. Nate) (3:26)
02. Find Me (Odyssey To Anyoona) (Radio Mix) (7:25)
03. Stella (Nalin & Kane Remix) (9:50)
04. Stella (Jam & Spoon Remix) (0:59)
05. Kiss Away (Original Album Mix) (5:06)
06. Angel (La Fiesta Musical Mix) (6:19)
07. I Pull My Gun Once (Original Mix) (2:52)
08. I Pull My Gun Twice (Original Mix) (4:08)
09. Be.Angeled (PvD Angeled Club Mix) (5:55)
10. Right In The Night 2013 (Groove Coverage Mix) (4:43)
11. Follow Me (Original Mix) (9:47)
Код: Выделить всё
AUDIOCHECKER v2.0 beta (build 457) - by Dester - opdester@freemail.hu
~~~~~~~~~~~~~~~~~~~~~~~~~~~~~~~~~~

Started at: Saturday, 21. 02. 2015. - 21:14.29
36 files found

01 -===- Y:\Downloads\Jam & Spoon\2015 - Best Of (Anniversary Edition 1990 - 2015)\Disk-1 (Unmixed)\01. Find Me 2015 (Jam El Mar Remix Radio Edit).flac
  Extracted successfully
  Conclusion: this track is CDDA with probability 100%
  Tempfile successfully deleted.

02 -===- Y:\Downloads\Jam & Spoon\2015 - Best Of (Anniversary Edition 1990 - 2015)\Disk-1 (Unmixed)\02. Right in the Night (David May vs Amfree Radio Edit without Rap).flac
  Extracted successfully
  Conclusion: this track is CDDA with probability 100%
  Tempfile successfully deleted.

03 -===- Y:\Downloads\Jam & Spoon\2015 - Best Of (Anniversary Edition 1990 - 2015)\Disk-1 (Unmixed)\03. Be.Angeled (Jam & Amfree Rework [Radio Edit]).flac
  Extracted successfully
  Conclusion: this track is CDDA with probability 100%
  Tempfile successfully deleted.

04 -===- Y:\Downloads\Jam & Spoon\2015 - Best Of (Anniversary Edition 1990 - 2015)\Disk-1 (Unmixed)\04. Stella (Original Mix).flac
  Extracted successfully
  Conclusion: this track is CDDA with probability 100%
  Tempfile successfully deleted.

05 -===- Y:\Downloads\Jam & Spoon\2015 - Best Of (Anniversary Edition 1990 - 2015)\Disk-1 (Unmixed)\05. I Pull My Gun Once (Original Mix).flac
  Extracted successfully
  Conclusion: this track is CDDA with probability 100%
  Tempfile successfully deleted.

06 -===- Y:\Downloads\Jam & Spoon\2015 - Best Of (Anniversary Edition 1990 - 2015)\Disk-1 (Unmixed)\06. I Pull My Gun Twice (Original Mix).flac
  Extracted successfully
  Conclusion: this track is CDDA with probability 100%
  Tempfile successfully deleted.

07 -===- Y:\Downloads\Jam & Spoon\2015 - Best Of (Anniversary Edition 1990 - 2015)\Disk-1 (Unmixed)\07. Angel (Ladadi O-Heyo) (Airplay Edit II).flac
  Extracted successfully
  Conclusion: this track is CDDA with probability 100%
  Tempfile successfully deleted.

08 -===- Y:\Downloads\Jam & Spoon\2015 - Best Of (Anniversary Edition 1990 - 2015)\Disk-1 (Unmixed)\08. El Baile.flac
  Extracted successfully
  Conclusion: this track is CDDA with probability 100%
  Tempfile successfully deleted.

09 -===- Y:\Downloads\Jam & Spoon\2015 - Best Of (Anniversary Edition 1990 - 2015)\Disk-1 (Unmixed)\09. Right in the Night (Fall in Love with Music).flac
  Extracted successfully
  Conclusion: this track is CDDA with probability 94%
  Tempfile successfully deleted.

10 -===- Y:\Downloads\Jam & Spoon\2015 - Best Of (Anniversary Edition 1990 - 2015)\Disk-1 (Unmixed)\10. Odyssey to Anyoona.flac
  Extracted successfully
  Conclusion: this track is CDDA with probability 99%
  Tempfile successfully deleted.

11 -===- Y:\Downloads\Jam & Spoon\2015 - Best Of (Anniversary Edition 1990 - 2015)\Disk-1 (Unmixed)\11. Follow Me! (Original Mix).flac
  Extracted successfully
  Conclusion: this track is CDDA with probability 100%
  Tempfile successfully deleted.

12 -===- Y:\Downloads\Jam & Spoon\2015 - Best Of (Anniversary Edition 1990 - 2015)\Disk-2 (Unmixed)\01. Set Me Free (Empty Rooms) (Video Version).flac
  Extracted successfully
  Conclusion: this track is CDDA with probability 100%
  Tempfile successfully deleted.

13 -===- Y:\Downloads\Jam & Spoon\2015 - Best Of (Anniversary Edition 1990 - 2015)\Disk-2 (Unmixed)\02. Cynical Heart.flac
  Extracted successfully
  Conclusion: this track is CDDA with probability 99%
  Tempfile successfully deleted.

14 -===- Y:\Downloads\Jam & Spoon\2015 - Best Of (Anniversary Edition 1990 - 2015)\Disk-2 (Unmixed)\03. Warm Dead Dog (Kaleidoscope Mix).flac
  Extracted successfully
  Conclusion: this track is CDDA with probability 100%
  Tempfile successfully deleted.

15 -===- Y:\Downloads\Jam & Spoon\2015 - Best Of (Anniversary Edition 1990 - 2015)\Disk-2 (Unmixed)\04. Bianche le mie mani.flac
  Extracted successfully
  Conclusion: this track is CDDA with probability 99%
  Tempfile successfully deleted.

16 -===- Y:\Downloads\Jam & Spoon\2015 - Best Of (Anniversary Edition 1990 - 2015)\Disk-2 (Unmixed)\05. None of This.flac
  Extracted successfully
  Conclusion: this track is CDDA with probability 99%
  Tempfile successfully deleted.

17 -===- Y:\Downloads\Jam & Spoon\2015 - Best Of (Anniversary Edition 1990 - 2015)\Disk-2 (Unmixed)\06. Butterfly Sign.flac
  Extracted successfully
  Conclusion: this track is CDDA with probability 94%
  Tempfile successfully deleted.

18 -===- Y:\Downloads\Jam & Spoon\2015 - Best Of (Anniversary Edition 1990 - 2015)\Disk-2 (Unmixed)\07. World of X.T.C..flac
  Extracted successfully
  Conclusion: this track is CDDA with probability 100%
  Tempfile successfully deleted.

19 -===- Y:\Downloads\Jam & Spoon\2015 - Best Of (Anniversary Edition 1990 - 2015)\Disk-2 (Unmixed)\08. Kaleidoscope Skies (Jam & Spoon Remix).flac
  Extracted successfully
  Conclusion: this track is CDDA with probability 100%
  Tempfile successfully deleted.

20 -===- Y:\Downloads\Jam & Spoon\2015 - Best Of (Anniversary Edition 1990 - 2015)\Disk-2 (Unmixed)\09. Right in the Night (Fall in Love with Music) (Flamenc-O-Matic Fairytale Radio).flac
  Extracted successfully
  Conclusion: this track is CDDA with probability 100%
  Tempfile successfully deleted.

21 -===- Y:\Downloads\Jam & Spoon\2015 - Best Of (Anniversary Edition 1990 - 2015)\Disk-2 (Unmixed)\10. Don't Call It Love (Radio Mix).flac
  Extracted successfully
  Conclusion: this track is CDDA with probability 100%
  Tempfile successfully deleted.

22 -===- Y:\Downloads\Jam & Spoon\2015 - Best Of (Anniversary Edition 1990 - 2015)\Disk-2 (Unmixed)\11. Find Me (Odyssey To Anyoona) (Radio Mix).flac
  Extracted successfully
  Conclusion: this track is CDDA with probability 100%
  Tempfile successfully deleted.

23 -===- Y:\Downloads\Jam & Spoon\2015 - Best Of (Anniversary Edition 1990 - 2015)\Disk-2 (Unmixed)\12. Be.Angeled (Radio Mix).flac
  Extracted successfully
  Conclusion: this track is CDDA with probability 100%
  Tempfile successfully deleted.

24 -===- Y:\Downloads\Jam & Spoon\2015 - Best Of (Anniversary Edition 1990 - 2015)\Disk-2 (Unmixed)\13. Stella (Barracuda Mix by Moby).flac
  Extracted successfully
  Conclusion: this track is CDDA with probability 100%
  Tempfile successfully deleted.

25 -===- Y:\Downloads\Jam & Spoon\2015 - Best Of (Anniversary Edition 1990 - 2015)\Disk-2 (Unmixed)\14. N.A.S.A. Nocturnal Audio Sensory Awakening.flac
  Extracted successfully
  Conclusion: this track is CDDA with probability 100%
  Tempfile successfully deleted.

26 -===- Y:\Downloads\Jam & Spoon\2015 - Best Of (Anniversary Edition 1990 - 2015)\Disk-3 (Mixed by Jam El Mar)\01. Right in the Night (David May vs Amfree Radio Edit ft Nate).flac
  Extracted successfully
  Conclusion: this track is CDDA with probability 100%
  Tempfile successfully deleted.

27 -===- Y:\Downloads\Jam & Spoon\2015 - Best Of (Anniversary Edition 1990 - 2015)\Disk-3 (Mixed by Jam El Mar)\02. Find Me (Odyssey To Anyoona).flac
  Extracted successfully
  Conclusion: this track is CDDA with probability 99%
  Tempfile successfully deleted.

28 -===- Y:\Downloads\Jam & Spoon\2015 - Best Of (Anniversary Edition 1990 - 2015)\Disk-3 (Mixed by Jam El Mar)\03. Stella (Nalin & Kane Remix).flac
  Extracted successfully
  Conclusion: this track is CDDA with probability 100%
  Tempfile successfully deleted.

29 -===- Y:\Downloads\Jam & Spoon\2015 - Best Of (Anniversary Edition 1990 - 2015)\Disk-3 (Mixed by Jam El Mar)\04. Stella (Jam & Spoon Remix).flac
  Extracted successfully
  Conclusion: this track is CDDA with probability 100%
  Tempfile successfully deleted.

30 -===- Y:\Downloads\Jam & Spoon\2015 - Best Of (Anniversary Edition 1990 - 2015)\Disk-3 (Mixed by Jam El Mar)\05. Kiss Away (Original Album Mix).flac
  Extracted successfully
  Conclusion: this track is CDDA with probability 99%
  Tempfile successfully deleted.

31 -===- Y:\Downloads\Jam & Spoon\2015 - Best Of (Anniversary Edition 1990 - 2015)\Disk-3 (Mixed by Jam El Mar)\06. Angel (La Fiesta Musical Mix).flac
  Extracted successfully
  Conclusion: this track is CDDA with probability 100%
  Tempfile successfully deleted.

32 -===- Y:\Downloads\Jam & Spoon\2015 - Best Of (Anniversary Edition 1990 - 2015)\Disk-3 (Mixed by Jam El Mar)\07. I Pull My Gun Once.flac
  Extracted successfully
  Conclusion: this track is CDDA with probability 100%
  Tempfile successfully deleted.

33 -===- Y:\Downloads\Jam & Spoon\2015 - Best Of (Anniversary Edition 1990 - 2015)\Disk-3 (Mixed by Jam El Mar)\08. I Pull My Gun Twice.flac
  Extracted successfully
  Conclusion: this track is CDDA with probability 100%
  Tempfile successfully deleted.

34 -===- Y:\Downloads\Jam & Spoon\2015 - Best Of (Anniversary Edition 1990 - 2015)\Disk-3 (Mixed by Jam El Mar)\09. Be.Angeled (PVD Angeled Club Mix).flac
  Extracted successfully
  Conclusion: this track is CDDA with probability 100%
  Tempfile successfully deleted.

35 -===- Y:\Downloads\Jam & Spoon\2015 - Best Of (Anniversary Edition 1990 - 2015)\Disk-3 (Mixed by Jam El Mar)\10. Right in the Night (Fall in Love with Music) (Groove Coverage Mix).flac
  Extracted successfully
  Conclusion: this track is CDDA with probability 100%
  Tempfile successfully deleted.

36 -===- Y:\Downloads\Jam & Spoon\2015 - Best Of (Anniversary Edition 1990 - 2015)\Disk-3 (Mixed by Jam El Mar)\11. Follow Me!.flac
  Extracted successfully
  Conclusion: this track is CDDA with probability 99%
  Tempfile successfully deleted.

Finished at: Saturday, 21. 02. 2015. - 21:23.51 (operation time: 0:09.22)
~ Singles ~
#777По discogs: http://www.discogs.com/Jam-Spoon-Featuring-Plavka-Find-Me-Odyssey-To-Anyoona/release/29587
Продолжительность: 36:24

Трэклист:
01. Find Me (Odyssey To Anyoona) (Radio Mix) (4:02)
02. Find Me (Odyssey To Anyoona) (7:30)
03. Die Kraft Der Vier Herzen (8:04)
04. The Tribe (6:46)
05. Odyssey To Anyoona (10:00)
Код: Выделить всё
Exact Audio Copy V1.0 beta 3 from 29. August 2011

EAC extraction logfile from 3. June 2014, 17:54

Jam & Spoon feat. Plavka / Find Me (Odyssey To Anyoona) [CDM]

Used drive  : SONY    DVD RW AD-7260S   Adapter: 0  ID: 0

Read mode               : Secure
Utilize accurate stream : Yes
Defeat audio cache      : Yes
Make use of C2 pointers : No

Read offset correction                      : 48
Overread into Lead-In and Lead-Out          : No
Fill up missing offset samples with silence : Yes
Delete leading and trailing silent blocks   : No
Null samples used in CRC calculations       : Yes
Used interface                              : Installed external ASPI interface

Used output format : Internal WAV Routines
Sample format      : 44.100 Hz; 16 Bit; Stereo

TOC of the extracted CD

     Track |   Start  |  Length  | Start sector | End sector
    ---------------------------------------------------------
        1  |  0:00.00 |  4:02.62 |         0    |    18211
        2  |  4:02.62 |  7:30.13 |     18212    |    51974
        3  | 11:33.00 |  8:04.37 |     51975    |    88311
        4  | 19:37.37 |  6:46.63 |     88312    |   118824
        5  | 26:24.25 | 10:00.40 |    118825    |   163864

Range status and errors

Selected range

     Filename V:\Torrents To Upload\RuTracker\Jam & Spoon\Singles\1994 - Find Me (Odyssey To Anyoona) [CDM]\Jam & Spoon feat. Plavka - Find Me (Odyssey To Anyoona) [CDM].wav

     Peak level 99.5 %
     Extraction speed 3.6 X
     Range quality 100.0 %
     Test CRC 31E03910
     Copy CRC 31E03910
     Copy OK

No errors occurred

AccurateRip summary

Track  1  accurately ripped (confidence 2)  [ECFC7734]  (AR v1)
Track  2  accurately ripped (confidence 2)  [ED1AC2D9]  (AR v1)
Track  3  accurately ripped (confidence 2)  [4E149153]  (AR v1)
Track  4  accurately ripped (confidence 2)  [DB1E5A8F]  (AR v1)
Track  5  accurately ripped (confidence 2)  [FA6911CB]  (AR v1)

All tracks accurately ripped

End of status report

==== Log checksum 90B1856FB8FD95B819B458CE01D41ACCD4177BB00E277673C5914E6A7268D1DF ====
#777По discogs: http://www.discogs.com/Jam-Spoon-Feat-Plavka-Kaleidoscope-Skies/release/47241
Продолжительность: 24:07

Трэклист:
01. Kaleidoscope Skies (Radio Edit) (3:29)
02. Kaleidoscope Skies (Radio Dance Edit) (3:55)
03. Kaleidoscope Skies (Club Mix) (6:09)
04. I Pull My Gun Once (5:04)
05. I Pull My Gun Twice (5:21)
Код: Выделить всё
Exact Audio Copy V1.0 beta 3 from 29. August 2011

EAC extraction logfile from 21. September 2012, 22:53

Jam & Spoon feat. Plavka / Kaleidoscope Skies [CDM]

Used drive  : SONY    DVD RW AD-7260S   Adapter: 0  ID: 0

Read mode               : Secure
Utilize accurate stream : Yes
Defeat audio cache      : Yes
Make use of C2 pointers : No

Read offset correction                      : 48
Overread into Lead-In and Lead-Out          : No
Fill up missing offset samples with silence : Yes
Delete leading and trailing silent blocks   : No
Null samples used in CRC calculations       : Yes
Used interface                              : Native Win32 interface for Win NT & 2000

Used output format : Internal WAV Routines
Sample format      : 44.100 Hz; 16 Bit; Stereo

TOC of the extracted CD

     Track |   Start  |  Length  | Start sector | End sector
    ---------------------------------------------------------
        1  |  0:00.00 |  3:31.65 |         0    |    15889
        2  |  3:31.65 |  3:57.42 |     15890    |    33706
        3  |  7:29.32 |  6:12.13 |     33707    |    61619
        4  | 13:41.45 |  5:04.22 |     61620    |    84441
        5  | 18:45.67 |  5:21.35 |     84442    |   108551

Range status and errors

Selected range

     Filename H:\Torrent Uploads\Jam & Spoon\Singles\1997 - Kaleidoscope Skies [CDM-1]\Jam & Spoon feat. Plavka - Kaleidoscope Skies [CDM].wav

     Peak level 100.0 %
     Extraction speed 3.2 X
     Range quality 100.0 %
     Test CRC 8DA1086C
     Copy CRC 8DA1086C
     Copy OK

No errors occurred

AccurateRip summary

Track  1  accurately ripped (confidence 6)  [5D427B44]  (AR v2)
Track  2  accurately ripped (confidence 5)  [C55470FA]  (AR v2)
Track  3  accurately ripped (confidence 5)  [43C67A7D]  (AR v2)
Track  4  accurately ripped (confidence 5)  [815B6FC5]  (AR v2)
Track  5  accurately ripped (confidence 5)  [84A0A783]  (AR v2)

All tracks accurately ripped

End of status report

==== Log checksum 2279AB80EF86E9C291158A0C89CE7814FC9E702091A136BF018A94DD6278E91B ====
#777По discogs: http://www.discogs.com/Jam-Spoon-Kaleidoscope-Skies-I-Pull-My-Gun/release/603880
Продолжительность: 20:41

Трэклист:
01. Kaleidoscope Skies (Open The Door / The Course Remix) (4:40)
02. Kaleidoscope Skies (Radio Dance Edit) (3:55)
03. Kaleidoscope Skies (Jam & Spoon Remix) (4:37)
04. I Pull My Gun... (DJ Quicksilver Remix) (7:22)
Код: Выделить всё
Exact Audio Copy V1.0 beta 3 from 29. August 2011

EAC extraction logfile from 21. September 2012, 23:18

Jam & Spoon / Kaleidoscope Skies [CDM-2]

Used drive  : SONY    DVD RW AD-7260S   Adapter: 0  ID: 0

Read mode               : Secure
Utilize accurate stream : Yes
Defeat audio cache      : Yes
Make use of C2 pointers : No

Read offset correction                      : 48
Overread into Lead-In and Lead-Out          : No
Fill up missing offset samples with silence : Yes
Delete leading and trailing silent blocks   : No
Null samples used in CRC calculations       : Yes
Used interface                              : Native Win32 interface for Win NT & 2000

Used output format : Internal WAV Routines
Sample format      : 44.100 Hz; 16 Bit; Stereo

TOC of the extracted CD

     Track |   Start  |  Length  | Start sector | End sector
    ---------------------------------------------------------
        1  |  0:00.00 |  4:42.25 |         0    |    21174
        2  |  4:42.25 |  3:57.65 |     21175    |    39014
        3  |  8:40.15 |  4:38.60 |     39015    |    59924
        4  | 13:19.00 |  7:22.57 |     59925    |    93131

Range status and errors

Selected range

     Filename H:\Torrent Uploads\Jam & Spoon\Singles\1997 - Kaleidoscope Skies [CDM-2]\Jam & Spoon - Kaleidoscope Skies [CDM-2].wav

     Peak level 100.0 %
     Extraction speed 3.1 X
     Range quality 100.0 %
     Test CRC E64B0021
     Copy CRC E64B0021
     Copy OK

No errors occurred

AccurateRip summary

Track  1  accurately ripped (confidence 2)  [C1C78E64]  (AR v1)
Track  2  accurately ripped (confidence 3)  [40BB668A]  (AR v1)
Track  3  accurately ripped (confidence 3)  [1DBF9751]  (AR v1)
Track  4  accurately ripped (confidence 3)  [B2C50D57]  (AR v1)

All tracks accurately ripped

End of status report

==== Log checksum 22F0BE6669E620A48F9829F330A97D360E0954C573D9C1EAB6F73F0071240F49 ====
#777По discogs: http://www.discogs.com/Jam-Spoon-Feat-Plavka-Dont-Call-It-Love/release/31863
Продолжительность: 58:00

Трэклист:
01. Don't Call It Love (Radio Mix) (3:41)
02. Don't Call It Love (Radio Dance Mix) (3:51)
03. Don't Call It Love (Club Mix) (6:17)
04. Call It Love (Big Club Mix) (8:25)
05. Call It Love (Deep Club Mix) (8:35)
06. Warm Dead Dog (Kaleidoscope Mix) (5:24)
07. Warm Dead Dog (Auto Man Mix) (6:13)
08. Call It Love (The We Call It Love Club Mix By Tiefschwarz) (7:48)
09. Call It Love (The We Call It Love Village Mix By Tiefschwarz) (7:32)
Код: Выделить всё
Exact Audio Copy V1.0 beta 3 from 29. August 2011

EAC extraction logfile from 21. September 2012, 19:33

Jam & Spoon feat. Plavka / Don't call it Love [CDM]

Used drive  : SONY    DVD RW AD-7260S   Adapter: 0  ID: 0

Read mode               : Secure
Utilize accurate stream : Yes
Defeat audio cache      : Yes
Make use of C2 pointers : No

Read offset correction                      : 48
Overread into Lead-In and Lead-Out          : No
Fill up missing offset samples with silence : Yes
Delete leading and trailing silent blocks   : No
Null samples used in CRC calculations       : Yes
Used interface                              : Native Win32 interface for Win NT & 2000

Used output format : Internal WAV Routines
Sample format      : 44.100 Hz; 16 Bit; Stereo

TOC of the extracted CD

     Track |   Start  |  Length  | Start sector | End sector
    ---------------------------------------------------------
        1  |  0:00.00 |  3:43.50 |         0    |    16774
        2  |  3:43.50 |  3:53.25 |     16775    |    34274
        3  |  7:37.00 |  6:16.00 |     34275    |    62474
        4  | 13:53.00 |  8:27.00 |     62475    |   100499
        5  | 22:20.00 |  8:36.25 |    100500    |   139224
        6  | 30:56.25 |  5:26.25 |    139225    |   163699
        7  | 36:22.50 |  6:15.25 |    163700    |   191849
        8  | 42:38.00 |  7:48.25 |    191850    |   226974
        9  | 50:26.25 |  7:34.30 |    226975    |   261054

Range status and errors

Selected range

     Filename H:\Torrent Uploads\Jam & Spoon\Singles\1998 - Don't Call It Love [CDM]\Jam & Spoon feat. Plavka - Don't call it Love [CDM].wav

     Peak level 98.5 %
     Extraction speed 4.0 X
     Range quality 100.0 %
     Test CRC B00EB51A
     Copy CRC B00EB51A
     Copy OK

No errors occurred

AccurateRip summary

Track  1  accurately ripped (confidence 6)  [3125E954]  (AR v1)
Track  2  accurately ripped (confidence 6)  [A69C9664]  (AR v1)
Track  3  accurately ripped (confidence 6)  [AF7D219B]  (AR v1)
Track  4  accurately ripped (confidence 6)  [CABAFBC8]  (AR v1)
Track  5  accurately ripped (confidence 6)  [B417572C]  (AR v1)
Track  6  accurately ripped (confidence 6)  [77FE139F]  (AR v1)
Track  7  accurately ripped (confidence 6)  [53786AF3]  (AR v1)
Track  8  accurately ripped (confidence 6)  [1F40943E]  (AR v1)
Track  9  accurately ripped (confidence 6)  [82D91A23]  (AR v1)

All tracks accurately ripped

End of status report

==== Log checksum 5563B1F9D818000590622E0F5757AFD319CAE2513EE0F4DDA41E6322AAFFA075 ====
#777По discogs: http://www.discogs.com/Jam-Spoon-Stella-1999-1992-How-Stella-Got-Her-Groove-Back-CD1/release/29580
Продолжительность: 43:24

Трэклист:
01. Stella 1999-1992 - How Stella Got Her Groove Back (Video / Radio Mix) (3:59)
02. Stella 1999-1992 - How Stella Got Her Groove Back (Storm Mix) (9:43)
03. Stella 1999-1992 - How Stella Got Her Groove Back (Return Of Stella '99 - Jam & Spoon Mix) (9:52)
04. Stella 1999-1992 - How Stella Got Her Groove Back (Nalin & Kane Mix) (13:33)
05. Stella 1999-1992 - How Stella Got Her Groove Back (Original Mix) (6:19)
Код: Выделить всё
Exact Audio Copy V1.0 beta 3 from 29. August 2011

EAC extraction logfile from 9. December 2014, 22:39

Jam & Spoon / Stella 1999 - 1992 (How Stella Got Her Groove Back) [CDM-1]

Used drive  : HL-DT-STBD-RE  WH14NS40   Adapter: 0  ID: 0

Read mode               : Secure
Utilize accurate stream : Yes
Defeat audio cache      : Yes
Make use of C2 pointers : No

Read offset correction                      : 6
Overread into Lead-In and Lead-Out          : No
Fill up missing offset samples with silence : Yes
Delete leading and trailing silent blocks   : No
Null samples used in CRC calculations       : Yes
Used interface                              : Installed external ASPI interface

Used output format : Internal WAV Routines
Sample format      : 44.100 Hz; 16 Bit; Stereo

TOC of the extracted CD

     Track |   Start  |  Length  | Start sector | End sector
    ---------------------------------------------------------
        1  |  0:00.00 |  4:02.00 |         0    |    18149
        2  |  4:02.00 |  9:45.00 |     18150    |    62024
        3  | 13:47.00 |  9:44.00 |     62025    |   105824
        4  | 23:31.00 | 13:34.50 |    105825    |   166924
        5  | 37:05.50 |  6:19.22 |    166925    |   195371

Range status and errors

Selected range

     Filename U:\Torrents To Upload\RuTracker\Jam & Spoon\Singles\1999 - Stella 1999 - 1992 (How Stella Got Her Groove Back) [CDM-1]\Jam & Spoon - Stella 1999 - 1992 (How Stella Got Her Groove Back) [CDM-1].wav

     Peak level 98.7 %
     Extraction speed 3.3 X
     Range quality 100.0 %
     Test CRC 257CD252
     Copy CRC 257CD252
     Copy OK

No errors occurred

AccurateRip summary

Track  1  accurately ripped (confidence 11)  [6D34B1C2]  (AR v2)
Track  2  accurately ripped (confidence 11)  [956AC863]  (AR v2)
Track  3  accurately ripped (confidence 11)  [AEB084ED]  (AR v2)
Track  4  accurately ripped (confidence 11)  [24BB0CF8]  (AR v2)
Track  5  accurately ripped (confidence 11)  [5C02095F]  (AR v2)

All tracks accurately ripped

End of status report

==== Log checksum E609775ACBC0725F92D4F75E507595243B9C2939866742032029739578FB9EDC ====
#777По discogs: http://www.discogs.com/Giorgio-Moroder-vs-Jam-Spoon-The-Chase/release/50396
Продолжительность: 33:41

Трэклист:
01. The Chase (Jam & Spoon Radio Mix) (3:51)
02. The Chase (Jam & Spoon Club Mix) (8:46)
03. The Chase (Paul Oakenfold Mix) (10:28)
04. The Chase (Junior Sanchez Mix) (6:39)
05. The Chase (DJ Werner Radio Mix) (3:55)
Код: Выделить всё
Exact Audio Copy V1.0 beta 3 from 29. August 2011

EAC extraction logfile from 22. September 2012, 0:31

Giorgio Moroder vs. Jam & Spoon / The Chase [CDM]

Used drive  : SONY    DVD RW AD-7260S   Adapter: 0  ID: 0

Read mode               : Secure
Utilize accurate stream : Yes
Defeat audio cache      : Yes
Make use of C2 pointers : No

Read offset correction                      : 48
Overread into Lead-In and Lead-Out          : No
Fill up missing offset samples with silence : Yes
Delete leading and trailing silent blocks   : No
Null samples used in CRC calculations       : Yes
Used interface                              : Native Win32 interface for Win NT & 2000

Used output format : Internal WAV Routines
Sample format      : 44.100 Hz; 16 Bit; Stereo

TOC of the extracted CD

     Track |   Start  |  Length  | Start sector | End sector
    ---------------------------------------------------------
        1  |  0:00.32 |  3:51.33 |        32    |    17389
        2  |  3:51.65 |  8:46.15 |     17390    |    56854
        3  | 12:38.05 | 10:28.27 |     56855    |   103981
        4  | 23:06.32 |  6:39.38 |    103982    |   133944
        5  | 29:45.70 |  3:55.37 |    133945    |   151606

Range status and errors

Selected range

     Filename H:\Torrent Uploads\Jam & Spoon\Singles\2000 - The Chase [CDM]\Giorgio Moroder vs. Jam & Spoon - The Chase [CDM].wav

     Peak level 100.0 %
     Extraction speed 3.5 X
     Range quality 100.0 %
     Test CRC A0FF27E1
     Copy CRC A0FF27E1
     Copy OK

No errors occurred

AccurateRip summary

Track  1  accurately ripped (confidence 12)  [EC350EDF]  (AR v1)
Track  2  accurately ripped (confidence 12)  [C74ED2D9]  (AR v1)
Track  3  accurately ripped (confidence 12)  [5F71AAAA]  (AR v1)
Track  4  accurately ripped (confidence 12)  [3C2DB2D1]  (AR v1)
Track  5  accurately ripped (confidence 12)  [BABB50EF]  (AR v1)

All tracks accurately ripped

End of status report

==== Log checksum CF2E248AA7FEEF683004FE3FD3474A45BAD4683319F9FF943D4240B27346F00A ====
#777По discogs: http://www.discogs.com/Jam-Spoon-Feat-Rea-BeAngeled/release/30914
Продолжительность: 39:34

Трэклист:
1. Be.Angeled (Radio Mix) (3:35)
2. Be.Angeled (PvD Club Mix) (7:30)
3. Be.Angeled (Happy People In The Morning Mix) (7:44)
4. Be.Angeled (Vandit Club Mix) (7:15)
5. Be.Angeled (PvD Angeled Club Mix) (7:02)
6. Be.Angeled (Tweaker Mix) (6:18)
Код: Выделить всё
Exact Audio Copy V1.0 beta 3 from 29. August 2011

EAC extraction logfile from 21. September 2012, 22:37

Jam & Spoon feat. Rea / Be.Angeled [CDM]

Used drive  : SONY    DVD RW AD-7260S   Adapter: 0  ID: 0

Read mode               : Secure
Utilize accurate stream : Yes
Defeat audio cache      : Yes
Make use of C2 pointers : No

Read offset correction                      : 48
Overread into Lead-In and Lead-Out          : No
Fill up missing offset samples with silence : Yes
Delete leading and trailing silent blocks   : No
Null samples used in CRC calculations       : Yes
Used interface                              : Native Win32 interface for Win NT & 2000

Used output format : Internal WAV Routines
Sample format      : 44.100 Hz; 16 Bit; Stereo

TOC of the extracted CD

     Track |   Start  |  Length  | Start sector | End sector
    ---------------------------------------------------------
        1  |  0:00.32 |  3:38.30 |        32    |    16411
        2  |  3:38.62 |  7:32.28 |     16412    |    50339
        3  | 11:11.15 |  7:45.17 |     50340    |    85231
        4  | 18:56.32 |  7:16.60 |     85232    |   117991
        5  | 26:13.17 |  7:03.50 |    117992    |   149766
        6  | 33:16.67 |  6:18.03 |    149767    |   178119

Range status and errors

Selected range

     Filename H:\Torrent Uploads\Jam & Spoon\Singles\2001 - Be.Angeled [CDM]\Jam & Spoon feat. Rea - Be.Angeled [CDM].wav

     Peak level 99.2 %
     Extraction speed 3.7 X
     Range quality 100.0 %
     Test CRC 005E0F41
     Copy CRC 005E0F41
     Copy OK

No errors occurred

AccurateRip summary

Track  1  accurately ripped (confidence 2)  [F9A22D1E]  (AR v2)
Track  2  accurately ripped (confidence 2)  [36473216]  (AR v2)
Track  3  accurately ripped (confidence 2)  [01D9FAE2]  (AR v2)
Track  4  accurately ripped (confidence 2)  [F7D616FA]  (AR v2)
Track  5  accurately ripped (confidence 2)  [510FC9B3]  (AR v2)
Track  6  accurately ripped (confidence 2)  [1DA285D1]  (AR v2)

All tracks accurately ripped

End of status report

==== Log checksum 1EB43C64A02AA23D5A6424EA4B688F1CF71C6C7748C1D781FBE3FF28F145BE5A ====
#777По discogs: http://www.discogs.com/Jam-Spoon-Feat-Rea-BeAngeled/release/262769
Продолжительность: 34:11

Трэклист:
1. Be.Angeled (Radio Edit) (3:36)
2. Be.Angeled (Hiver And Hammer Remix) (6:56)
3. Be.Angeled (Sound Express Remix) (7:45)
4. Be.Angeled (Electric Tease Remix) (8:14)
5. Be.Angeled (Paul Van Dyk Angeled Club Mix) (7:31)
Код: Выделить всё
Exact Audio Copy V1.0 beta 3 from 29. August 2011

EAC extraction logfile from 24. October 2012, 21:48

Jam & Spoon / Be.Angeled [CDr Promo]

Used drive  : SONY    DVD RW AD-7260S   Adapter: 0  ID: 0

Read mode               : Secure
Utilize accurate stream : Yes
Defeat audio cache      : Yes
Make use of C2 pointers : No

Read offset correction                      : 48
Overread into Lead-In and Lead-Out          : No
Fill up missing offset samples with silence : Yes
Delete leading and trailing silent blocks   : No
Null samples used in CRC calculations       : Yes
Used interface                              : Native Win32 interface for Win NT & 2000

Used output format : Internal WAV Routines
Sample format      : 44.100 Hz; 16 Bit; Stereo

TOC of the extracted CD

     Track |   Start  |  Length  | Start sector | End sector
    ---------------------------------------------------------
        1  |  0:00.00 |  3:38.55 |         0    |    16404
        2  |  3:38.55 |  6:59.27 |     16405    |    47856
        3  | 10:38.07 |  7:47.65 |     47857    |    82946
        4  | 18:25.72 |  8:13.65 |     82947    |   119986
        5  | 26:39.62 |  7:31.03 |    119987    |   153814

Range status and errors

Selected range

     Filename H:\Torrent Uploads\Jam & Spoon\Singles\2001 - Be.Angeled [CDr Promo]\Jam & Spoon - Be.Angeled [CDr Promo].wav

     Peak level 99.9 %
     Extraction speed 3.7 X
     Range quality 100.0 %
     Test CRC 402016FD
     Copy CRC 402016FD
     Copy OK

No errors occurred

AccurateRip summary

Track  1  not present in database
Track  2  not present in database
Track  3  not present in database
Track  4  not present in database
Track  5  not present in database

None of the tracks are present in the AccurateRip database

End of status report

==== Log checksum 8B1EF366EF2E4191D926D85CAC526F49C1C380E0DD68C7708672741F17384490 ====
#777По discogs: http://www.discogs.com/Jam-Spoon-Cynical-Heart/release/469952
Продолжительность: 23:58

Трэклист:
1. Cynical Heart (Radio Mix) (3:45)
2. Cynical Heart (Extended Radio Mix) (6:07)
3. Cynical Heart (Cet Merlin Mix) (7:43)
4. Show Me Your Strength L.G. (6:19)
Код: Выделить всё
Exact Audio Copy V1.0 beta 3 from 29. August 2011

EAC extraction logfile from 21. September 2012, 23:41

Jam & Spoon / Cynical Heart [CDM]

Used drive  : SONY    DVD RW AD-7260S   Adapter: 0  ID: 0

Read mode               : Secure
Utilize accurate stream : Yes
Defeat audio cache      : Yes
Make use of C2 pointers : No

Read offset correction                      : 48
Overread into Lead-In and Lead-Out          : No
Fill up missing offset samples with silence : Yes
Delete leading and trailing silent blocks   : No
Null samples used in CRC calculations       : Yes
Used interface                              : Native Win32 interface for Win NT & 2000

Used output format : Internal WAV Routines
Sample format      : 44.100 Hz; 16 Bit; Stereo

TOC of the extracted CD

     Track |   Start  |  Length  | Start sector | End sector
    ---------------------------------------------------------
        1  |  0:00.00 |  3:45.47 |         0    |    16921
        2  |  3:45.47 |  6:07.70 |     16922    |    44516
        3  |  9:53.42 |  7:45.18 |     44517    |    79409
        4  | 17:38.60 |  6:19.67 |     79410    |   107901

Range status and errors

Selected range

     Filename H:\Torrent Uploads\Jam & Spoon\Singles\2003 - Cynical Heart [CDM]\Jam & Spoon - Cynical Heart [CDM].wav

     Peak level 100.0 %
     Extraction speed 3.5 X
     Range quality 100.0 %
     Test CRC E2F8A44A
     Copy CRC E2F8A44A
     Copy OK

No errors occurred

AccurateRip summary

Track  1  accurately ripped (confidence 3)  [6576CFBE]  (AR v1)
Track  2  accurately ripped (confidence 3)  [51F44CC4]  (AR v1)
Track  3  accurately ripped (confidence 3)  [A236EC06]  (AR v1)
Track  4  accurately ripped (confidence 3)  [229460A6]  (AR v1)

All tracks accurately ripped

End of status report

==== Log checksum D1EE4EB0283C9FAD68F35C2164D851C9298E43313D22D471F91FC32027A33A3B ====
#777По discogs: http://www.discogs.com/Jam-Spoon-Butterfly-Sign/release/603121
Продолжительность: 28:57

Трэклист:
1. Butterfly Sign (Radio Version) (3:13)
2. Butterfly Sign (Bugati Remix) (4:02)
3. Butterfly Sign (K-Paul vs. Mark Spoon Rmx) (5:43)
4. Butterfly Sign (Thomilla's Butt Can Fly Rmx) (8:40)
5. Butterfly Sign (Starfighter 2 Remix Short) (3:58)
6. Butterfly Sign (Instrumental) (3:12)
Код: Выделить всё
Exact Audio Copy V1.0 beta 3 from 29. August 2011

EAC extraction logfile from 21. September 2012, 20:30

Jam & Spoon feat. Plavka / Butterfly Sign [CDM]

Used drive  : SONY    DVD RW AD-7260S   Adapter: 0  ID: 0

Read mode               : Secure
Utilize accurate stream : Yes
Defeat audio cache      : Yes
Make use of C2 pointers : No

Read offset correction                      : 48
Overread into Lead-In and Lead-Out          : No
Fill up missing offset samples with silence : Yes
Delete leading and trailing silent blocks   : No
Null samples used in CRC calculations       : Yes
Used interface                              : Native Win32 interface for Win NT & 2000

Used output format : Internal WAV Routines
Sample format      : 44.100 Hz; 16 Bit; Stereo

TOC of the extracted CD

     Track |   Start  |  Length  | Start sector | End sector
    ---------------------------------------------------------
        1  |  0:00.00 |  3:13.20 |         0    |    14494
        2  |  3:13.20 |  4:05.44 |     14495    |    32913
        3  |  7:18.64 |  5:46.22 |     32914    |    58885
        4  | 13:05.11 |  8:41.22 |     58886    |    97982
        5  | 21:46.33 |  3:59.44 |     97983    |   115951
        6  | 25:46.02 |  3:11.40 |    115952    |   130316
        7  | 31:29.42 |  3:47.39 |    141717    |   158780

Range status and errors

Selected range

     Filename H:\Torrent Uploads\Jam & Spoon\Singles\2004 - Butterfly Sign [Enhanced CDM]\Jam & Spoon feat. Plavka - Butterfly Sign [CDM].wav

     Peak level 98.8 %
     Extraction speed 3.4 X
     Range quality 100.0 %
     Test CRC AAFFDC8B
     Copy CRC AAFFDC8B
     Copy OK

No errors occurred

AccurateRip summary

Track  1  accurately ripped (confidence 1)  [FF139519]  (AR v1)
Track  2  accurately ripped (confidence 1)  [8018993A]  (AR v1)
Track  3  accurately ripped (confidence 1)  [565FCA0F]  (AR v1)
Track  4  accurately ripped (confidence 1)  [3A24B89E]  (AR v1)
Track  5  accurately ripped (confidence 1)  [88639C80]  (AR v1)
Track  6  accurately ripped (confidence 1)  [9526E74F]  (AR v1)

All tracks accurately ripped

End of status report

==== Log checksum 04BFF260E12CC48DB6EB643FA80480A81A96ABFF3E512042D0F4095229E9945B ====
По discogs: http://www.discogs.com/Jam-Spoon-Follow-Me-Jaïa-Remix/release/3503432
Продолжительность: 08:22

Трэклист:
1. Follow Me (JAIA remix) (8:22)
Код: Выделить всё
AUDIOCHECKER v2.0 beta (build 457) - by Dester - opdester@freemail.hu
~~~~~~~~~~~~~~~~~~~~~~~~~~~~~~~~~~

01 -===- Z:\Volumes\Temp Elements\Uploads\Jam & Spoon\Singles\2010 - Follow Me! (JAIA remix) [Web]\01 - Follow Me! (JAIA remix).wav
  Conclusion: this track is CDDA with probability 100%
#777Продолжительность: 04:06

Трэклист:
1. Right In The Night 2011 (Classic Mix) (4:06)
Код: Выделить всё
AUDIOCHECKER v2.0 beta (build 457) - by Dester - opdester@freemail.hu
~~~~~~~~~~~~~~~~~~~~~~~~~~~~~~~~~~

Started at: Saturday, 08. 09. 2012. - 21:20.23
1 file found

1 -===- Z:\Volumes\Temp Elements\Uploads\Jam & Spoon\Singles\2011 - Right In The Night 2011 feat. Plavka (Classic Mix) [Web]\Jam & Spoon - Right In The Night 2011 feat. Plavka (Classic Mix).wav
  Conclusion: this track is CDDA with probability 100%

Finished at: Saturday, 08. 09. 2012. - 21:20.38 (operation time: 0:00.15)
#777Продолжительность: 11:55

Трэклист:
1. Be.Angeled feat. Rea (New Generation Remix) (4:05)
2. Be.Angeled feat. Rea (New Generation Remix Extended Version) (7:50)
Код: Выделить всё
AUDIOCHECKER v2.0 beta (build 457) - by Dester - opdester@freemail.hu
~~~~~~~~~~~~~~~~~~~~~~~~~~~~~~~~~~

Started at: Thursday, 06. 09. 2012. - 1:31.52
10 files found

01 -===- Z:\Volumes\Temp Elements\Uploads\Jam & Spoon\Singles\2010 - Follow Me! (JAIA remix) [Web]\01 - Follow Me! (JAIA remix).wav
  Conclusion: this track is CDDA with probability 100%

02 -===- Z:\Volumes\Temp Elements\Uploads\Jam & Spoon\Singles\2011 - Be.Angeled (New Generaton Remix) [Web]\01 - Be.Angeled feat. Rea (New Generation Remix).wav
  Conclusion: this track is CDDA with probability 100%

03 -===- Z:\Volumes\Temp Elements\Uploads\Jam & Spoon\Singles\2011 - Be.Angeled (New Generaton Remix) [Web]\02 - Be.Angeled feat. Rea (New Generation Remix Extended Version).wav
  Conclusion: this track is CDDA with probability 100%

04 -===- Z:\Volumes\Temp Elements\Uploads\Jam & Spoon\Singles\2012 - Follow Me! (Remixes 2012) [Web]\01 - Follow Me! (Luis Flores Remix).wav
  Conclusion: this track is CDDA with probability 100%

05 -===- Z:\Volumes\Temp Elements\Uploads\Jam & Spoon\Singles\2012 - Follow Me! (Remixes 2012) [Web]\02 - Follow Me! (Heiko Laux SloDub).wav
  Conclusion: this track is CDDA with probability 100%

06 -===- Z:\Volumes\Temp Elements\Uploads\Jam & Spoon\Singles\2012 - Follow Me! (Remixes 2012) [Web]\03 - Follow Me! (Mike Wall Remix).wav
  Conclusion: this track is CDDA with probability 100%

07 -===- Z:\Volumes\Temp Elements\Uploads\Jam & Spoon\Singles\2012 - Follow Me! (Remixes 2012) [Web]\04 - Follow Me! (Brian Sanhaji Remix).wav
  Conclusion: this track is CDDA with probability 100%

08 -===- Z:\Volumes\Temp Elements\Uploads\Jam & Spoon\Singles\2012 - Follow Me! (Remixes 2012) [Web]\05 - Follow Me! (Perc's Metal Trance Remix).wav
  Conclusion: this track is CDDA with probability 100%

09 -===- Z:\Volumes\Temp Elements\Uploads\Jam & Spoon\Singles\2012 - Follow Me! (Remixes 2012) [Web]\06 - Follow Me! (Peter Eilmes Remix).wav
  Conclusion: this track is CDDA with probability 100%

10 -===- Z:\Volumes\Temp Elements\Uploads\Jam & Spoon\Singles\2012 - Follow Me! (Remixes 2012) [Web]\07 - Follow Me! (Brian Sanhaji Flashes Before Your Eyes Remix).wav
  Conclusion: this track is CDDA with probability 99%

Finished at: Thursday, 06. 09. 2012. - 1:35.36 (operation time: 0:03.43)
#777По discogs: http://www.discogs.com/Jam-Spoon-Follow-Me-Remixes-2012/release/3770186
Продолжительность: 48:33

Трэклист:
1. Follow Me! (Luis Flores Remix) (6:26)
2. Follow Me! (Heiko Laux SloDub) (9:15)
3. Follow Me! (Mike Wall Remix) (6:58)
4. Follow Me! (Brian Sanhaji Remix) (7:31)
5. Follow Me! (Perc's Metal Trance Remix) (6:21)
6. Follow Me! (Peter Eilmes Remix) (5:36)
7. Follow Me! (Brian Sanhaji "Flashes Before Your Eyes Remix") (6:13)
Код: Выделить всё
AUDIOCHECKER v2.0 beta (build 457) - by Dester - opdester@freemail.hu
~~~~~~~~~~~~~~~~~~~~~~~~~~~~~~~~~~

Started at: Thursday, 06. 09. 2012. - 1:31.52
10 files found

01 -===- Z:\Volumes\Temp Elements\Uploads\Jam & Spoon\Singles\2010 - Follow Me! (JAIA remix) [Web]\01 - Follow Me! (JAIA remix).wav
  Conclusion: this track is CDDA with probability 100%

02 -===- Z:\Volumes\Temp Elements\Uploads\Jam & Spoon\Singles\2011 - Be.Angeled (New Generaton Remix) [Web]\01 - Be.Angeled feat. Rea (New Generation Remix).wav
  Conclusion: this track is CDDA with probability 100%

03 -===- Z:\Volumes\Temp Elements\Uploads\Jam & Spoon\Singles\2011 - Be.Angeled (New Generaton Remix) [Web]\02 - Be.Angeled feat. Rea (New Generation Remix Extended Version).wav
  Conclusion: this track is CDDA with probability 100%

04 -===- Z:\Volumes\Temp Elements\Uploads\Jam & Spoon\Singles\2012 - Follow Me! (Remixes 2012) [Web]\01 - Follow Me! (Luis Flores Remix).wav
  Conclusion: this track is CDDA with probability 100%

05 -===- Z:\Volumes\Temp Elements\Uploads\Jam & Spoon\Singles\2012 - Follow Me! (Remixes 2012) [Web]\02 - Follow Me! (Heiko Laux SloDub).wav
  Conclusion: this track is CDDA with probability 100%

06 -===- Z:\Volumes\Temp Elements\Uploads\Jam & Spoon\Singles\2012 - Follow Me! (Remixes 2012) [Web]\03 - Follow Me! (Mike Wall Remix).wav
  Conclusion: this track is CDDA with probability 100%

07 -===- Z:\Volumes\Temp Elements\Uploads\Jam & Spoon\Singles\2012 - Follow Me! (Remixes 2012) [Web]\04 - Follow Me! (Brian Sanhaji Remix).wav
  Conclusion: this track is CDDA with probability 100%

08 -===- Z:\Volumes\Temp Elements\Uploads\Jam & Spoon\Singles\2012 - Follow Me! (Remixes 2012) [Web]\05 - Follow Me! (Perc's Metal Trance Remix).wav
  Conclusion: this track is CDDA with probability 100%

09 -===- Z:\Volumes\Temp Elements\Uploads\Jam & Spoon\Singles\2012 - Follow Me! (Remixes 2012) [Web]\06 - Follow Me! (Peter Eilmes Remix).wav
  Conclusion: this track is CDDA with probability 100%

10 -===- Z:\Volumes\Temp Elements\Uploads\Jam & Spoon\Singles\2012 - Follow Me! (Remixes 2012) [Web]\07 - Follow Me! (Brian Sanhaji Flashes Before Your Eyes Remix).wav
  Conclusion: this track is CDDA with probability 99%

Finished at: Thursday, 06. 09. 2012. - 1:35.36 (operation time: 0:03.43)
#777По discogs: N/A
Продолжительность: 33:43

Трэклист:
1. Right In The Night (David May vs Amfree Radio Edit ft Nate) (3:30)
2. Right In The Night (Bodybangers Remix) (5:24)
3. Right In The Night (Groove Coverage Remix) (5:28)
4. Right In The Night (Michael Mind Project Remix) (5:42)
5. Right In The Night (David May vs Amfree Radio Edit without Rap) (3:13)
6. Right In The Night (David May vs Amfree Extended Mix) (5:20)
7. Right In The Night (Classic Mix 2k13) (4:06)
Код: Выделить всё
AUDIOCHECKER v2.0 beta (build 457) - by Dester - opdester@freemail.hu
~~~~~~~~~~~~~~~~~~~~~~~~~~~~~~~~~~

Started at: Tuesday, 06. 08. 2013. - 19:43.39
7 files found

1 -===- Z:\Users\aggressor\Downloads\2013 - Right In The Night 2013\Right In The Night 2013\01 - Right In The Night - David May vs Amfree Radio Edit ft Nate.flac
  Extracted successfully
  Conclusion: this track is CDDA with probability 100%
  Tempfile successfully deleted.

2 -===- Z:\Users\aggressor\Downloads\2013 - Right In The Night 2013\Right In The Night 2013\02 - Right In The Night - Bodybangers Remix.flac
  Extracted successfully
  Conclusion: this track is CDDA with probability 100%
  Tempfile successfully deleted.

3 -===- Z:\Users\aggressor\Downloads\2013 - Right In The Night 2013\Right In The Night 2013\03 - Right In The Night - Groove Coverage Remix.flac
  Extracted successfully
  Conclusion: this track is CDDA with probability 99%
  Tempfile successfully deleted.

4 -===- Z:\Users\aggressor\Downloads\2013 - Right In The Night 2013\Right In The Night 2013\04 - Right In The Night - Michael Mind Project Remix.flac
  Extracted successfully
  Conclusion: this track is CDDA with probability 100%
  Tempfile successfully deleted.

5 -===- Z:\Users\aggressor\Downloads\2013 - Right In The Night 2013\Right In The Night 2013\05 - Right In The Night - David May vs Amfree Radio Edit without Rap.flac
  Extracted successfully
  Conclusion: this track is CDDA with probability 100%
  Tempfile successfully deleted.

6 -===- Z:\Users\aggressor\Downloads\2013 - Right In The Night 2013\Right In The Night 2013\06 - Right In The Night - David May vs Amfree Extended Mix.flac
  Extracted successfully
  Conclusion: this track is CDDA with probability 100%
  Tempfile successfully deleted.

7 -===- Z:\Users\aggressor\Downloads\2013 - Right In The Night 2013\Right In The Night 2013\07 - Right In The Night - Classic Mix 2k13.flac
  Extracted successfully
  Conclusion: this track is CDDA with probability 100%
  Tempfile successfully deleted.

Finished at: Tuesday, 06. 08. 2013. - 19:45.54 (operation time: 0:02.15)
#777По discogs: N/A
Продолжительность: 47:01

Трэклист:
1. Right In The Night (G&G Remix) (5:09)
2. Right In The Night (Rico Bernasconi Remix) (5:45)
3. Right In The Night (Bodybangers Remix Edit) (3:29)
4. Right In The Night (Groove Coverage Remix Edit) (3:11)
5. Right In The Night (Michael Mind Project Remix Edit) (3:43)
6. Right In The Night (A&P Remix) (6:11)
7. Right In The Night (Tim Gartz Remix) (6:30)
8. Right In The Night (Electrotoys Remix) (5:49)
9. Right In The Night (Pop House Remix) (3:43)
10. Right In The Night (De-Phazz Remix) (3:31)
Код: Выделить всё
AUDIOCHECKER v2.0 beta (build 457) - by Dester - opdester@freemail.hu
~~~~~~~~~~~~~~~~~~~~~~~~~~~~~~~~~~

Started at: Tuesday, 06. 08. 2013. - 19:51.24
10 files found

01 -===- Z:\Users\aggressor\Downloads\2013 - Right In The Night 2013\Right In The Night 2013 (Remix EP)\01 - Right In The Night - G&G Remix.flac
  Extracted successfully
  Conclusion: this track is CDDA with probability 99%
  Tempfile successfully deleted.

02 -===- Z:\Users\aggressor\Downloads\2013 - Right In The Night 2013\Right In The Night 2013 (Remix EP)\02 - Right In The Night - Rico Bernasconi Remix.flac
  Extracted successfully
  Conclusion: this track is CDDA with probability 100%
  Tempfile successfully deleted.

03 -===- Z:\Users\aggressor\Downloads\2013 - Right In The Night 2013\Right In The Night 2013 (Remix EP)\03 - Right In The Night - Bodybangers Remix Edit.flac
  Extracted successfully
  Conclusion: this track is CDDA with probability 100%
  Tempfile successfully deleted.

04 -===- Z:\Users\aggressor\Downloads\2013 - Right In The Night 2013\Right In The Night 2013 (Remix EP)\04 - Right In The Night - Groove Coverage Remix Edit.flac
  Extracted successfully
  Conclusion: this track is CDDA with probability 100%
  Tempfile successfully deleted.

05 -===- Z:\Users\aggressor\Downloads\2013 - Right In The Night 2013\Right In The Night 2013 (Remix EP)\05 - Right In The Night - Michael Mind Project Remix Edit.flac
  Extracted successfully
  Conclusion: this track is CDDA with probability 99%
  Tempfile successfully deleted.

06 -===- Z:\Users\aggressor\Downloads\2013 - Right In The Night 2013\Right In The Night 2013 (Remix EP)\06 - Right In The Night - A&P Remix.flac
  Extracted successfully
  Conclusion: this track is CDDA with probability 100%
  Tempfile successfully deleted.

07 -===- Z:\Users\aggressor\Downloads\2013 - Right In The Night 2013\Right In The Night 2013 (Remix EP)\07 - Right In The Night - Tim Gartz Remix.flac
  Extracted successfully
  Conclusion: this track is CDDA with probability 100%
  Tempfile successfully deleted.

08 -===- Z:\Users\aggressor\Downloads\2013 - Right In The Night 2013\Right In The Night 2013 (Remix EP)\08 - Right In The Night - Electrotoys Remix.flac
  Extracted successfully
  Conclusion: this track is CDDA with probability 100%
  Tempfile successfully deleted.

09 -===- Z:\Users\aggressor\Downloads\2013 - Right In The Night 2013\Right In The Night 2013 (Remix EP)\09 - Right In The Night - Pop House Remix.flac
  Extracted successfully
  Conclusion: this track is CDDA with probability 100%
  Tempfile successfully deleted.

10 -===- Z:\Users\aggressor\Downloads\2013 - Right In The Night 2013\Right In The Night 2013 (Remix EP)\10 - Right In The Night - De-Phazz Remix.flac
  Extracted successfully
  Conclusion: this track is CDDA with probability 100%
  Tempfile successfully deleted.

Finished at: Tuesday, 06. 08. 2013. - 19:54.47 (operation time: 0:03.22)
#777По discogs: N/A
Продолжительность: 21:26

Трэклист:
1. Find Me (Odyssey To Anyoona) feat. Plavka (Johan Agebjorn Feat. Sally Shapiro Remix) (6:57)
2. Find Me (Odyssey To Anyoona) feat. Plavka (Johan Agebjorn Feat. Sally Shapiro Dub) (6:57)
3. Find Me (Odyssey To Anyoona) feat. Plavka (7:32)
Код: Выделить всё
AUDIOCHECKER v2.0 beta (build 457) - by Dester - opdester@freemail.hu
~~~~~~~~~~~~~~~~~~~~~~~~~~~~~~~~~~

Started at: Wednesday, 14. 05. 2014. - 0:08.18
3 files found

1 -===- V:\Torrents To Upload\RuTracker\Jam & Spoon\Singles\2014 - Find Me (Odyssey To Anyoona) [Web Single]\01 - Find Me (Odyssey To Anyoona) feat. Plavka (Johan Agebjorn Feat. Sally Shapiro Remix).flac
  Extracted successfully
  Conclusion: this track is CDDA with probability 100%
  Tempfile successfully deleted.

2 -===- V:\Torrents To Upload\RuTracker\Jam & Spoon\Singles\2014 - Find Me (Odyssey To Anyoona) [Web Single]\02 - Find Me (Odyssey To Anyoona) feat. Plavka (Johan Agebjorn Feat. Sally Shapiro Dub).flac
  Extracted successfully
  Conclusion: this track is CDDA with probability 100%
  Tempfile successfully deleted.

3 -===- V:\Torrents To Upload\RuTracker\Jam & Spoon\Singles\2014 - Find Me (Odyssey To Anyoona) [Web Single]\03 - Find Me (Odyssey To Anyoona) feat. Plavka.flac
  Extracted successfully
  Conclusion: this track is CDDA with probability 100%
  Tempfile successfully deleted.

Finished at: Wednesday, 14. 05. 2014. - 0:09.26 (operation time: 0:01.08)
#777По discogs: N/A
Продолжительность: 31:07

Трэклист:
1. Follow Me (Remastered) (12:29)
2. Follow Me (Relaunch Remix Main Version Remastered) (10:18)
3. Follow Me (Relaunch Remix Short Version Remastered) (8:20)
Код: Выделить всё
AUDIOCHECKER v2.0 beta (build 457) - by Dester - opdester@freemail.hu
~~~~~~~~~~~~~~~~~~~~~~~~~~~~~~~~~~

Started at: Wednesday, 14. 05. 2014. - 0:12.00
3 files found

1 -===- V:\Torrents To Upload\RuTracker\Jam & Spoon\Singles\2014 - Follow Me (Remastered) [Web Single]\01 - Follow Me (Remastered).flac
  Extracted successfully
  Conclusion: this track is CDDA with probability 100%
  Tempfile successfully deleted.

2 -===- V:\Torrents To Upload\RuTracker\Jam & Spoon\Singles\2014 - Follow Me (Remastered) [Web Single]\02 - Follow Me (Relaunch Remix Main Version Remastered).flac
  Extracted successfully
  Conclusion: this track is CDDA with probability 100%
  Tempfile successfully deleted.

3 -===- V:\Torrents To Upload\RuTracker\Jam & Spoon\Singles\2014 - Follow Me (Remastered) [Web Single]\03 - Follow Me (Relaunch Remix Short Version Remastered).flac
  Extracted successfully
  Conclusion: this track is CDDA with probability 99%
  Tempfile successfully deleted.

Finished at: Wednesday, 14. 05. 2014. - 0:13.29 (operation time: 0:01.29)
#777По discogs: N/A
Продолжительность: 34:58

Трэклист:
1. Be.Angeled (Jam & Amfree Rework / Radio Edit) (3:47)
2. Be.Angeled (DJ Shog Rework Edit) (3:21)
3. Be.Angeled (Bodybangers Remix Edit) (3:06)
4. Be.Angeled (CJ Stone & Milo.nl Remix Edit) (3:23)
5. Be.Angeled (Jam & Amfree Rework) (5:50)
6. Be.Angeled (DJ Shog Rework) (5:03)
7. Be.Angeled (Bodybangers Remix) (4:36)
8. Be.Angeled (CJ Stone & Milo.nl Remix) (5:48)
Код: Выделить всё
AUDIOCHECKER v2.0 beta (build 457) - by Dester - opdester@freemail.hu
~~~~~~~~~~~~~~~~~~~~~~~~~~~~~~~~~~

Started at: Monday, 10. 11. 2014. - 0:30.26
8 files found

1 -===- W:\Torrents To Upload\RuTracker\Jam & Spoon\Singles\2014 - Be.Angeled 2014 [Web Single]\01. Be.Angeled (Jam & Amfree Rework Radio Edit).flac
  Extracted successfully
  Conclusion: this track is CDDA with probability 100%
  Tempfile successfully deleted.

2 -===- W:\Torrents To Upload\RuTracker\Jam & Spoon\Singles\2014 - Be.Angeled 2014 [Web Single]\02. Be.Angeled (DJ Shog Rework Edit).flac
  Extracted successfully
  Conclusion: this track is CDDA with probability 100%
  Tempfile successfully deleted.

3 -===- W:\Torrents To Upload\RuTracker\Jam & Spoon\Singles\2014 - Be.Angeled 2014 [Web Single]\03. Be.Angeled (Bodybangers Remix Edit).flac
  Extracted successfully
  Conclusion: this track is CDDA with probability 100%
  Tempfile successfully deleted.

4 -===- W:\Torrents To Upload\RuTracker\Jam & Spoon\Singles\2014 - Be.Angeled 2014 [Web Single]\04. Be.Angeled (CJ Stone & Milo.nl Remix Edit).flac
  Extracted successfully
  Conclusion: this track is CDDA with probability 100%
  Tempfile successfully deleted.

5 -===- W:\Torrents To Upload\RuTracker\Jam & Spoon\Singles\2014 - Be.Angeled 2014 [Web Single]\05. Be.Angeled (Jam & Amfree Rework).flac
  Extracted successfully
  Conclusion: this track is CDDA with probability 100%
  Tempfile successfully deleted.

6 -===- W:\Torrents To Upload\RuTracker\Jam & Spoon\Singles\2014 - Be.Angeled 2014 [Web Single]\06. Be.Angeled (DJ Shog Rework).flac
  Extracted successfully
  Conclusion: this track is CDDA with probability 100%
  Tempfile successfully deleted.

7 -===- W:\Torrents To Upload\RuTracker\Jam & Spoon\Singles\2014 - Be.Angeled 2014 [Web Single]\07. Be.Angeled (Bodybangers Remix).flac
  Extracted successfully
  Conclusion: this track is CDDA with probability 100%
  Tempfile successfully deleted.

8 -===- W:\Torrents To Upload\RuTracker\Jam & Spoon\Singles\2014 - Be.Angeled 2014 [Web Single]\08. Be.Angeled (CJ Stone & Milo.nl Remix).flac
  Extracted successfully
  Conclusion: this track is CDDA with probability 100%
  Tempfile successfully deleted.

Finished at: Monday, 10. 11. 2014. - 0:32.15 (operation time: 0:01.48)
#777По discogs: N/A
Продолжительность: 44:46

Трэклист:
1. Find Me 2015 (Jam El Mar Remix Radio Edit) (3:52)
2. Find Me 2015 (Jam El Mar Club Edit) (9:10)
3. Find Me 2015 (Bodybangers Remix) (4:57)
4. Find Me 2015 (Bodybangers Remix Radio Edit) (3:27)
5. Find Me 2015 (Amfree vs. Twho Remix) (4:12)
6. Find Me 2015 (Amfree vs. Twho Remix Edit) (3:16)
7. Find Me 2015 (Jake Nichols Remix) (8:33)
8. Find Me 2015 (Paduraru vs Dubacid Deephouse Mix) (7:21)
Код: Выделить всё
AUDIOCHECKER v2.0 beta (build 457) - by Dester - opdester@freemail.hu
~~~~~~~~~~~~~~~~~~~~~~~~~~~~~~~~~~

Started at: Monday, 09. 03. 2015. - 23:16.06
8 files found

1 -===- V:\Torrents To Upload\RuTracker\Jam & Spoon\Singles\2015 - Find Me 2015\01. Find Me 2015 (Jam El Mar Remix Radio Edit).flac
  Extracted successfully
  Conclusion: this track is CDDA with probability 100%
  Tempfile successfully deleted.

2 -===- V:\Torrents To Upload\RuTracker\Jam & Spoon\Singles\2015 - Find Me 2015\02. Find Me 2015 (Jam El Mar Club Edit).flac
  Extracted successfully
  Conclusion: this track is CDDA with probability 100%
  Tempfile successfully deleted.

3 -===- V:\Torrents To Upload\RuTracker\Jam & Spoon\Singles\2015 - Find Me 2015\03. Find Me 2015 (Bodybangers Remix).flac
  Extracted successfully
  Conclusion: this track is CDDA with probability 100%
  Tempfile successfully deleted.

4 -===- V:\Torrents To Upload\RuTracker\Jam & Spoon\Singles\2015 - Find Me 2015\04. Find Me 2015 (Bodybangers Remix Radio Edit).flac
  Extracted successfully
  Conclusion: this track is CDDA with probability 100%
  Tempfile successfully deleted.

5 -===- V:\Torrents To Upload\RuTracker\Jam & Spoon\Singles\2015 - Find Me 2015\05. Find Me 2015 (Amfree vs. Twho Remix).flac
  Extracted successfully
  Conclusion: this track is CDDA with probability 100%
  Tempfile successfully deleted.

6 -===- V:\Torrents To Upload\RuTracker\Jam & Spoon\Singles\2015 - Find Me 2015\06. Find Me 2015 (Amfree vs. Twho Remix Edit).flac
  Extracted successfully
  Conclusion: this track is CDDA with probability 100%
  Tempfile successfully deleted.

7 -===- V:\Torrents To Upload\RuTracker\Jam & Spoon\Singles\2015 - Find Me 2015\07. Find Me 2015 (Jake Nichols Remix).flac
  Extracted successfully
  Conclusion: this track is CDDA with probability 99%
  Tempfile successfully deleted.

8 -===- V:\Torrents To Upload\RuTracker\Jam & Spoon\Singles\2015 - Find Me 2015\08. Find Me 2015 (Paduraru vs Dubacid Deephouse Mix).flac
  Extracted successfully
  Conclusion: this track is CDDA with probability 100%
  Tempfile successfully deleted.

Finished at: Monday, 09. 03. 2015. - 23:18.15 (operation time: 0:02.08)
КУБКИ

СТАЖ

МЕДАЛИ
Награды:13

Пожизненный VIP+ (1) За активную помощь проекту (1) Лучший по количеству кубков (1) За отличные раздачи и качество (4) За отличные комментарии (3) Почётный форумчанин (1) Верный Сид (2)

Аватара пользователя
СССР
Korsar
Заслуженный Корсар-Вип+
  • Торрент
Для скачивания торрента необходимо зарегистрироваться или войти на трекер.

Сообщение balu » 15 сен 2018, 04:39

Спасибо :-dance2: :DJ: :music: :dance:
СТАЖ

МЕДАЛИ
Награды:4

За помощь проекту в 200 рублей (2) Почётный форумчанин (1) Верный Сид (1)

Аватара пользователя
Russia
balu
Мини VIP-200


Вернуться в Progressive Trance, Progressive House, Tech-House, Deep-House, Electro, Electro-House, House (Lossless)



Uptime по данным Ping-Admin.Ru - сервиса мониторинга доступности сайтов
Рейтинг@Mail.ru